Новые торренты

Самые скачиваемые

Топ 5 Cидеров

Топ 5 Личеров

Результатов поиска: 65

Автор Сообщение

johny81

Пост 17-Янв-2014 11:14

[Цитировать] 

N1NT3ND0 - N1NT3ND0 (2011)
Страна: Россия
Жанр: Рэп
Год выпуска: 2011
Формат: M4A (tracks)
Битрейт аудио: lossless
Продолжительность: 00:56:39
Трэклист:
Треклист:
01 Интро.m4a
02 И тебя уже.net.m4a
03 Отмели.m4a
04 Буду погибать мАло. дым.m4a
05 Пуля на вылет.m4a
06 Гив ми мани.m4a
07 Олина попа.m4a
08 Не хуй делать.m4a
09 Буду на чеку.m4a
10 Ламбада.m4a
11 ЧП.m4a
12 Ран Вася ран.m4a
13 Шутники.m4a
14 Криминал.m4a
15 Инь Янь.m4a

iAlexey

Пост 08-Июл-2011 21:10

[Цитировать] 

PETRI NYG?RD: Kaikki tai ei mit??n!!
Жанр: Rap/Hip-Hop/Pop
Год выпуска: 2011
Формат: MP3
Продолжительность: 49
Трэклист:
01. Mee kyykkyyn
02. Selv? p?iv? (feat. Lord Est)
03. Paska maailma
04. Sarvet esiin (feat.Mokoma)
05. Tulta! Skit
06. Herkku
07. Jotain muuta (feat. Aajee)
08. Jatkoille
09. Takapihan kautta
10. Kaikki tai ei mit??n
11. Villi ja vitun vapaa
12. Luonnon kihara
13. Tossun alla (feat. Sotajumala)
14. Tekniikka skit
15. Rokkiporno
16. Ei se v??rin oo
17. Hells bells skit
18. Oneandonly
Доп. информация:
Финский рэп, слушаем, это ржачнее чем китайский )))
http://www.youtube.com/watch?v=OqoKizBhmyA

sub97

Пост 26-Ноя-2010 11:57

[Цитировать] 

Кстати может Runaway выложить? У меня как раз на жестком диске HD версия есть)

m-igo

Пост 26-Ноя-2010 02:02

[Цитировать] 

отличный альбом!
качал в мр3 понравился!
ещё видео ранауэй класс!

xoxojke

Пост 25-Ноя-2010 16:07

[Цитировать] 

Отличный альбом)) качал в mp3 очень понравился

sub97

Пост 25-Ноя-2010 08:38

[Цитировать] 

Kanye West - My Beautiful Dark Twisted Fantasy Жанр: Hip-Hop
Год выпуска: 2010
Источник : what.cd
Официальный сайт : kanyewest.com
Формат: ALAC (tracks)
Продолжительность: 01:08:43
Тексты: Отсутствуют
Трэклист:
01. Dark Fantasy (4:41)
02. Gorgeous (Feat. Kid Cudi & Raekwon) (5:58)
03. Power (4:52)
04. All Of The Lights (Interlude) (1:02)
05. All Of The Lights (Feat. Rihanna, John Legend, Kid Cudi, Ryan Leslie, Tony Williams, Alicia Keys, Charlie Wilson, The-Dream, Elly Jackson, Fergie and Elton John) (5:00)
06. Monster (Feat. Jay-Z, Rick Ross, Nicki Minaj & Bon Iver) (6:19)
07. So Appalled (Feat. Jay-Z, Pusha T, CyHi Da Prynce, Swizz Beatz & The RZA) (6:38)
08. Devil In A New Dress (Feat. Rick Ross) (5:52)
09. Runaway (Feat. Pusha T) (9:08)
10. Hell Of A Life (5:28)
11. Blame Game (Feat. John Legend) (7:50)
12. Lost In The World (Feat. Bon Iver) (4:17)
13. Who Will Survive In America (1:38)

Лог граббера

:
X Lossless Decoder version 20101107 (124.1)
XLD extraction logfile from 2010-11-19 14:55:58 +1100
Kanye West / My Beautiful Dark Twisted Fantasy
Used drive : HL-DT-ST DVDRW GS23N (revision SB03)
Use cdparanoia mode : YES (CDParanoia III 10.2 engine)
Disable audio cache : OK for the drive with cache less than 2750KB
Make use of C2 pointers : NO
Read offset correction : 667
Max retry count : 100
Gap status : Analyzed, Appended
TOC of the extracted CD
Track | Start | Length | Start sector | End sector
---------------------------------------------------------
1 | 00:00:15 | 04:40:59 | 15 | 21073
2 | 04:40:74 | 05:57:49 | 21074 | 47897
3 | 10:38:48 | 04:52:07 | 47898 | 69804
4 | 15:30:55 | 01:02:19 | 69805 | 74473
5 | 16:32:74 | 04:59:59 | 74474 | 96957
6 | 21:32:58 | 06:18:67 | 96958 | 125374
7 | 27:51:50 | 06:38:13 | 125375 | 155237
8 | 34:29:63 | 05:52:35 | 155238 | 181672
9 | 40:22:23 | 09:08:15 | 181673 | 222787
10 | 49:30:38 | 05:27:59 | 222788 | 247371
11 | 54:58:22 | 07:49:65 | 247372 | 282611
12 | 62:48:12 | 04:16:44 | 282612 | 301855
13 | 67:04:56 | 01:38:15 | 301856 | 309220
All Tracks
Album gain : -10.34 dB
Peak : 1.000000
Track 01
Filename : /Users/hamishduncan/Desktop/KANYE WEST - MY BEAUTIFUL DARK TWISTED FANTASY - FLAC - 2010/01 Kanye West - Dark Fantasy.flac
Pre-gap length : 00:02:15
Track gain : -10.54 dB
Peak : 1.000000
CRC32 hash (test run) : 6B51C466
CRC32 hash : 6B51C466
CRC32 hash (skip zero) : 68C12522
AccurateRip signature : A1895394
->Track not present in AccurateRip database.
Statistics
Read error : 0
Skipped (treated as error) : 0
Edge jitter error (maybe fixed) : 0
Atom jitter error (maybe fixed) : 0
Drift error (maybe fixed) : 0
Dropped bytes error (maybe fixed) : 0
Duplicated bytes error (maybe fixed) : 0
Inconsistency in error sectors : 0
Track 02
Filename : /Users/hamishduncan/Desktop/KANYE WEST - MY BEAUTIFUL DARK TWISTED FANTASY - FLAC - 2010/02 Kanye West - Gorgeous [feat. Kid Cudi].flac
Track gain : -10.01 dB
Peak : 1.000000
CRC32 hash (test run) : 45CF9E5E
CRC32 hash : 45CF9E5E
CRC32 hash (skip zero) : BD37CB0E
AccurateRip signature : 55BD159A
->Track not present in AccurateRip database.
Statistics
Read error : 0
Skipped (treated as error) : 0
Edge jitter error (maybe fixed) : 0
Atom jitter error (maybe fixed) : 0
Drift error (maybe fixed) : 0
Dropped bytes error (maybe fixed) : 0
Duplicated bytes error (maybe fixed) : 0
Inconsistency in error sectors : 0
Track 03
Filename : /Users/hamishduncan/Desktop/KANYE WEST - MY BEAUTIFUL DARK TWISTED FANTASY - FLAC - 2010/03 Kanye West - POWER.flac
Track gain : -9.92 dB
Peak : 1.000000
CRC32 hash (test run) : 80B98017
CRC32 hash : 80B98017
CRC32 hash (skip zero) : 61360336
AccurateRip signature : 00D8A338
->Track not present in AccurateRip database.
Statistics
Read error : 0
Skipped (treated as error) : 0
Edge jitter error (maybe fixed) : 0
Atom jitter error (maybe fixed) : 0
Drift error (maybe fixed) : 0
Dropped bytes error (maybe fixed) : 0
Duplicated bytes error (maybe fixed) : 0
Inconsistency in error sectors : 0
Track 04
Filename : /Users/hamishduncan/Desktop/KANYE WEST - MY BEAUTIFUL DARK TWISTED FANTASY - FLAC - 2010/04 Kanye West - All Of The Lights [Interlude].flac
Track gain : -1.09 dB
Peak : 0.700043
CRC32 hash (test run) : 67AC2002
CRC32 hash : 67AC2002
CRC32 hash (skip zero) : EF8A38F2
AccurateRip signature : 6B72664D
->Track not present in AccurateRip database.
Statistics
Read error : 0
Skipped (treated as error) : 0
Edge jitter error (maybe fixed) : 0
Atom jitter error (maybe fixed) : 0
Drift error (maybe fixed) : 0
Dropped bytes error (maybe fixed) : 0
Duplicated bytes error (maybe fixed) : 0
Inconsistency in error sectors : 0
Track 05
Filename : /Users/hamishduncan/Desktop/KANYE WEST - MY BEAUTIFUL DARK TWISTED FANTASY - FLAC - 2010/05 Kanye West - All Of The Lights.flac
Track gain : -12.02 dB
Peak : 1.000000
CRC32 hash (test run) : 99CF60F4
CRC32 hash : 99CF60F4
CRC32 hash (skip zero) : D180004C
AccurateRip signature : 2B0D648D
->Track not present in AccurateRip database.
Statistics
Read error : 0
Skipped (treated as error) : 0
Edge jitter error (maybe fixed) : 0
Atom jitter error (maybe fixed) : 0
Drift error (maybe fixed) : 0
Dropped bytes error (maybe fixed) : 0
Duplicated bytes error (maybe fixed) : 0
Inconsistency in error sectors : 0
Track 06
Filename : /Users/hamishduncan/Desktop/KANYE WEST - MY BEAUTIFUL DARK TWISTED FANTASY - FLAC - 2010/06 Kanye West - Monster [feat. Jay-Z, Rick Ross, Nicki Minaj & Bon Iver].flac
Pre-gap length : 00:00:13
Track gain : -8.73 dB
Peak : 1.000000
CRC32 hash (test run) : FB2D2690
CRC32 hash : FB2D2690
CRC32 hash (skip zero) : 4A4959BE
AccurateRip signature : C1A8FC04
->Track not present in AccurateRip database.
Statistics
Read error : 0
Skipped (treated as error) : 0
Edge jitter error (maybe fixed) : 6
Atom jitter error (maybe fixed) : 6
Drift error (maybe fixed) : 0
Dropped bytes error (maybe fixed) : 0
Duplicated bytes error (maybe fixed) : 0
Inconsistency in error sectors : 0
Track 07
Filename : /Users/hamishduncan/Desktop/KANYE WEST - MY BEAUTIFUL DARK TWISTED FANTASY - FLAC - 2010/07 Kanye West - So Appalled [feat. Jay-Z, Pusha T, CyHi Da Prynce, Swizz Beatz & The RZA].flac
Track gain : -8.50 dB
Peak : 0.995544
CRC32 hash (test run) : BDCBA9F8
CRC32 hash : BDCBA9F8
CRC32 hash (skip zero) : 7F6D59EF
AccurateRip signature : 91453E82
->Track not present in AccurateRip database.
Statistics
Read error : 0
Skipped (treated as error) : 0
Edge jitter error (maybe fixed) : 0
Atom jitter error (maybe fixed) : 0
Drift error (maybe fixed) : 0
Dropped bytes error (maybe fixed) : 0
Duplicated bytes error (maybe fixed) : 0
Inconsistency in error sectors : 0
Track 08
Filename : /Users/hamishduncan/Desktop/KANYE WEST - MY BEAUTIFUL DARK TWISTED FANTASY - FLAC - 2010/08 Kanye West - Devil In A New Dress [feat. Rick Ross].flac
Pre-gap length : 00:00:38
Track gain : -9.09 dB
Peak : 1.000000
CRC32 hash (test run) : 40E58A30
CRC32 hash : 40E58A30
CRC32 hash (skip zero) : E742CF65
AccurateRip signature : 10FCE6F9
->Track not present in AccurateRip database.
Statistics
Read error : 0
Skipped (treated as error) : 0
Edge jitter error (maybe fixed) : 0
Atom jitter error (maybe fixed) : 0
Drift error (maybe fixed) : 0
Dropped bytes error (maybe fixed) : 0
Duplicated bytes error (maybe fixed) : 0
Inconsistency in error sectors : 0
Track 09
Filename : /Users/hamishduncan/Desktop/KANYE WEST - MY BEAUTIFUL DARK TWISTED FANTASY - FLAC - 2010/09 Kanye West - Runaway [feat. Pusha T].flac
Pre-gap length : 00:00:39
Track gain : -11.20 dB
Peak : 1.000000
CRC32 hash (test run) : 71E12715
CRC32 hash : 71E12715
CRC32 hash (skip zero) : 279B029A
AccurateRip signature : 1B713E9B
->Track not present in AccurateRip database.
Statistics
Read error : 0
Skipped (treated as error) : 0
Edge jitter error (maybe fixed) : 0
Atom jitter error (maybe fixed) : 0
Drift error (maybe fixed) : 0
Dropped bytes error (maybe fixed) : 0
Duplicated bytes error (maybe fixed) : 0
Inconsistency in error sectors : 0
Track 10
Filename : /Users/hamishduncan/Desktop/KANYE WEST - MY BEAUTIFUL DARK TWISTED FANTASY - FLAC - 2010/10 Kanye West - Hell Of A Life.flac
Pre-gap length : 00:00:35
Track gain : -9.21 dB
Peak : 1.000000
CRC32 hash (test run) : 8EB1F3DC
CRC32 hash : 8EB1F3DC
CRC32 hash (skip zero) : CC8E82AE
AccurateRip signature : F82D4957
->Track not present in AccurateRip database.
Statistics
Read error : 0
Skipped (treated as error) : 0
Edge jitter error (maybe fixed) : 3
Atom jitter error (maybe fixed) : 3
Drift error (maybe fixed) : 0
Dropped bytes error (maybe fixed) : 0
Duplicated bytes error (maybe fixed) : 0
Inconsistency in error sectors : 0
Track 11
Filename : /Users/hamishduncan/Desktop/KANYE WEST - MY BEAUTIFUL DARK TWISTED FANTASY - FLAC - 2010/11 Kanye West - Blame Game [feat. John Legend].flac
Track gain : -9.74 dB
Peak : 1.000000
CRC32 hash (test run) : FFCECCAA
CRC32 hash : FFCECCAA
CRC32 hash (skip zero) : 85AD428E
AccurateRip signature : 1BD32F51
->Track not present in AccurateRip database.
Statistics
Read error : 0
Skipped (treated as error) : 0
Edge jitter error (maybe fixed) : 0
Atom jitter error (maybe fixed) : 0
Drift error (maybe fixed) : 0
Dropped bytes error (maybe fixed) : 0
Duplicated bytes error (maybe fixed) : 0
Inconsistency in error sectors : 0
Track 12
Filename : /Users/hamishduncan/Desktop/KANYE WEST - MY BEAUTIFUL DARK TWISTED FANTASY - FLAC - 2010/12 Kanye West - Lost In The World [feat. Bon Iver].flac
Track gain : -11.48 dB
Peak : 1.000000
CRC32 hash (test run) : E6EF604E
CRC32 hash : E6EF604E
CRC32 hash (skip zero) : E940924F
AccurateRip signature : A6496A88
->Track not present in AccurateRip database.
Statistics
Read error : 0
Skipped (treated as error) : 0
Edge jitter error (maybe fixed) : 1
Atom jitter error (maybe fixed) : 1
Drift error (maybe fixed) : 0
Dropped bytes error (maybe fixed) : 0
Duplicated bytes error (maybe fixed) : 0
Inconsistency in error sectors : 0
Track 13
Filename : /Users/hamishduncan/Desktop/KANYE WEST - MY BEAUTIFUL DARK TWISTED FANTASY - FLAC - 2010/13 Kanye West - Who Will Survive In America.flac
Track gain : -8.68 dB
Peak : 1.000000
CRC32 hash (test run) : F888C38E
CRC32 hash : F888C38E
CRC32 hash (skip zero) : 9A555DE8
AccurateRip signature : B8DAB056
->Track not present in AccurateRip database.
Statistics
Read error : 0
Skipped (treated as error) : 0
Edge jitter error (maybe fixed) : 0
Atom jitter error (maybe fixed) : 0
Drift error (maybe fixed) : 0
Dropped bytes error (maybe fixed) : 0
Duplicated bytes error (maybe fixed) : 0
Inconsistency in error sectors : 0
No errors occurred
End of status report

Сонограмма

sub97

Пост 21-Ноя-2010 00:47

[Цитировать] 

UPD: Перезалил торрент, добавлен файл лога

sub97

Пост 21-Ноя-2010 00:43

[Цитировать] 

Хорошо сейчас добавлю!

Red_Bandit

Пост 20-Ноя-2010 18:28

[Цитировать] 

sub97
Вроде всё хорошо, но лог файл согласно правил должен быть в составе раздачи.

bob911

Пост 20-Ноя-2010 18:16

[Цитировать] 

THANKS MAN

sub97

Пост 19-Ноя-2010 23:30

[Цитировать] 

Kid Cudi - Man on the Moon II: The Legend of Mr. Rager Жанр: Alternative Hip-Hop
Издатель : G.O.O.D Music
Официальный сайт: www.kidcudi.com
Год выпуска: 2010
Источник : what.cd (planlos)
Формат: ALAC (tracks)
Продолжительность: 01:02:07
Тексты: Отсутствуют
Трэклист:
01. Scott Mescudi vs. The World (feat. Cee-Lo Green) 03:55
02. REVOFEV 03:03
03. Dont Play This Song (feat. Mary J. Blige) 03:43
04. We Aite (Wake Your Mind Up) 01:27
05. Marijuana 04:20
06. Mojo So Dope 03:31
07. Ashin' Kusher 03:48
08. Erase Me (feat. Kanye West) 03:13
09. Wild'N Cuz I'm Young 04:14
10. The Mood 02:36
11. Maniac (feat. Cage and St. Vincent) 02:58
12. Mr. Rager 04:54
13. These Worries (feat. Mary J. Blige) 04:16
14. The End (feat. GLC, Chip Tha Ripper and Nicole Wray) 04:21
15. All Along 03:23
16. Ghost! 04:49
17. Trapped In My Mind 03:34
Технические данные:

Cонограмма

Лог граббера

X Lossless Decoder version 20101031 (123.7)
XLD extraction logfile from 2010-11-05 13:47:27 +0100
Kid Cudi / Man On The Moon II: The Legend Of Mr. Rager
Used drive : MATSHITA CD-RW CW-8124 (revision DACH)
Use cdparanoia mode : YES (CDParanoia III 10.2 engine)
Disable audio cache : OK for the drive with cache less than 2750KB
Make use of C2 pointers : NO
Read offset correction : 102
Max retry count : 100
Gap status : Analyzed, Appended
TOC of the extracted CD
Track | Start | Length | Start sector | End sector
---------------------------------------------------------
1 | 00:00:15 | 03:55:22 | 15 | 17661
2 | 03:55:37 | 03:03:13 | 17662 | 31399
3 | 06:58:50 | 03:42:67 | 31400 | 48116
4 | 10:41:42 | 01:26:46 | 48117 | 54612
5 | 12:08:13 | 04:20:15 | 54613 | 74127
6 | 16:28:28 | 03:30:44 | 74128 | 89921
7 | 19:58:72 | 03:48:37 | 89922 | 107058
8 | 23:47:34 | 03:13:29 | 107059 | 121562
9 | 27:00:63 | 04:14:00 | 121563 | 140612
10 | 31:14:63 | 02:35:52 | 140613 | 152289
11 | 33:50:40 | 02:58:18 | 152290 | 165657
12 | 36:48:58 | 04:54:17 | 165658 | 187724
13 | 41:43:00 | 04:16:05 | 187725 | 206929
14 | 45:59:05 | 04:21:13 | 206930 | 226517
15 | 50:20:18 | 03:22:61 | 226518 | 241728
16 | 53:43:04 | 04:49:05 | 241729 | 263408
17 | 58:32:09 | 03:34:26 | 263409 | 279484
All Tracks
Album gain : -9.67 dB
Peak : 1.000000
Track 01
Filename : /Kid.Cudi.Man.On.The.Moon.II.The.Legend.Of.Mr.Rager.2010.FLAC-HDC/01. Scott Mescudi vs. The World (feat. Cee-Lo Green).flac
Pre-gap length : 00:02:15
Track gain : -9.98 dB
Peak : 1.000000
CRC32 hash (test run) : 3A9ADD9C
CRC32 hash : 3A9ADD9C
CRC32 hash (skip zero) : 325A5B24
AccurateRip signature : BB7DADD3
->Track not present in AccurateRip database.
Statistics
Read error : 0
Skipped (treated as error) : 0
Edge jitter error (maybe fixed) : 0
Atom jitter error (maybe fixed) : 0
Drift error (maybe fixed) : 0
Dropped bytes error (maybe fixed) : 0
Duplicated bytes error (maybe fixed) : 0
Inconsistency in error sectors : 0
Track 02
Filename : /Kid.Cudi.Man.On.The.Moon.II.The.Legend.Of.Mr.Rager.2010.FLAC-HDC/02. REVOFEV.flac
Track gain : -9.47 dB
Peak : 0.985382
CRC32 hash (test run) : BBC3F5EB
CRC32 hash : BBC3F5EB
CRC32 hash (skip zero) : 3B51FECE
AccurateRip signature : 987A43FA
->Track not present in AccurateRip database.
Statistics
Read error : 0
Skipped (treated as error) : 0
Edge jitter error (maybe fixed) : 0
Atom jitter error (maybe fixed) : 0
Drift error (maybe fixed) : 0
Dropped bytes error (maybe fixed) : 0
Duplicated bytes error (maybe fixed) : 0
Inconsistency in error sectors : 0
Track 03
Filename : /Kid.Cudi.Man.On.The.Moon.II.The.Legend.Of.Mr.Rager.2010.FLAC-HDC/03. Dont Play This Song (feat. Mary J. Blige).flac
Track gain : -10.30 dB
Peak : 0.987976
CRC32 hash (test run) : 1295B138
CRC32 hash : 1295B138
CRC32 hash (skip zero) : D7F1F04F
AccurateRip signature : 4EF48F39
->Track not present in AccurateRip database.
Statistics
Read error : 0
Skipped (treated as error) : 0
Edge jitter error (maybe fixed) : 0
Atom jitter error (maybe fixed) : 0
Drift error (maybe fixed) : 0
Dropped bytes error (maybe fixed) : 0
Duplicated bytes error (maybe fixed) : 0
Inconsistency in error sectors : 0
Track 04
Filename : /Kid.Cudi.Man.On.The.Moon.II.The.Legend.Of.Mr.Rager.2010.FLAC-HDC/04. We Aite (Wake Your Mind Up).flac
Track gain : -5.91 dB
Peak : 1.000000
CRC32 hash (test run) : 4EA05B5C
CRC32 hash : 4EA05B5C
CRC32 hash (skip zero) : 43F8C5D6
AccurateRip signature : 059EFB8D
->Track not present in AccurateRip database.
Statistics
Read error : 0
Skipped (treated as error) : 0
Edge jitter error (maybe fixed) : 0
Atom jitter error (maybe fixed) : 0
Drift error (maybe fixed) : 0
Dropped bytes error (maybe fixed) : 0
Duplicated bytes error (maybe fixed) : 0
Inconsistency in error sectors : 0
Track 05
Filename : /Kid.Cudi.Man.On.The.Moon.II.The.Legend.Of.Mr.Rager.2010.FLAC-HDC/05. Marijuana.flac
Track gain : -7.07 dB
Peak : 0.801849
CRC32 hash (test run) : 8B0E187E
CRC32 hash : 8B0E187E
CRC32 hash (skip zero) : B7DA3C45
AccurateRip signature : 387E4AD8
->Track not present in AccurateRip database.
Statistics
Read error : 0
Skipped (treated as error) : 0
Edge jitter error (maybe fixed) : 0
Atom jitter error (maybe fixed) : 0
Drift error (maybe fixed) : 0
Dropped bytes error (maybe fixed) : 0
Duplicated bytes error (maybe fixed) : 0
Inconsistency in error sectors : 0
Track 06
Filename : /Kid.Cudi.Man.On.The.Moon.II.The.Legend.Of.Mr.Rager.2010.FLAC-HDC/06. Mojo So Dope.flac
Track gain : -8.51 dB
Peak : 1.000000
CRC32 hash (test run) : 39B1CB06
CRC32 hash : 39B1CB06
CRC32 hash (skip zero) : 47AE4ED1
AccurateRip signature : ECF010ED
->Track not present in AccurateRip database.
Statistics
Read error : 0
Skipped (treated as error) : 0
Edge jitter error (maybe fixed) : 0
Atom jitter error (maybe fixed) : 0
Drift error (maybe fixed) : 0
Dropped bytes error (maybe fixed) : 0
Duplicated bytes error (maybe fixed) : 0
Inconsistency in error sectors : 0
Track 07
Filename : /Kid.Cudi.Man.On.The.Moon.II.The.Legend.Of.Mr.Rager.2010.FLAC-HDC/07. Ashin Kusher.flac
Track gain : -10.88 dB
Peak : 1.000000
CRC32 hash (test run) : B8A17DE2
CRC32 hash : B8A17DE2
CRC32 hash (skip zero) : 566417FB
AccurateRip signature : 522FCBD1
->Track not present in AccurateRip database.
Statistics
Read error : 0
Skipped (treated as error) : 0
Edge jitter error (maybe fixed) : 0
Atom jitter error (maybe fixed) : 0
Drift error (maybe fixed) : 0
Dropped bytes error (maybe fixed) : 0
Duplicated bytes error (maybe fixed) : 0
Inconsistency in error sectors : 0
Track 08
Filename : /Kid.Cudi.Man.On.The.Moon.II.The.Legend.Of.Mr.Rager.2010.FLAC-HDC/08. Erase Me (feat. Kanye West).flac
Track gain : -9.66 dB
Peak : 0.952911
CRC32 hash (test run) : FB24D99E
CRC32 hash : FB24D99E
CRC32 hash (skip zero) : 658BEE54
AccurateRip signature : 546C4624
->Track not present in AccurateRip database.
Statistics
Read error : 0
Skipped (treated as error) : 0
Edge jitter error (maybe fixed) : 0
Atom jitter error (maybe fixed) : 0
Drift error (maybe fixed) : 0
Dropped bytes error (maybe fixed) : 0
Duplicated bytes error (maybe fixed) : 0
Inconsistency in error sectors : 0
Track 09
Filename : /Kid.Cudi.Man.On.The.Moon.II.The.Legend.Of.Mr.Rager.2010.FLAC-HDC/09. Wildn Cuz Im Young.flac
Pre-gap length : 00:01:09
Track gain : -9.43 dB
Peak : 1.000000
CRC32 hash (test run) : 779080B9
CRC32 hash : 779080B9
CRC32 hash (skip zero) : E984AE70
AccurateRip signature : E22A838B
->Track not present in AccurateRip database.
Statistics
Read error : 0
Skipped (treated as error) : 0
Edge jitter error (maybe fixed) : 0
Atom jitter error (maybe fixed) : 0
Drift error (maybe fixed) : 0
Dropped bytes error (maybe fixed) : 0
Duplicated bytes error (maybe fixed) : 0
Inconsistency in error sectors : 0
Track 10
Filename : /Kid.Cudi.Man.On.The.Moon.II.The.Legend.Of.Mr.Rager.2010.FLAC-HDC/10. The Mood.flac
Track gain : -9.70 dB
Peak : 0.989288
CRC32 hash (test run) : 6B741FEE
CRC32 hash : 6B741FEE
CRC32 hash (skip zero) : BAA73725
AccurateRip signature : EF524F0B
->Track not present in AccurateRip database.
Statistics
Read error : 0
Skipped (treated as error) : 0
Edge jitter error (maybe fixed) : 0
Atom jitter error (maybe fixed) : 0
Drift error (maybe fixed) : 0
Dropped bytes error (maybe fixed) : 0
Duplicated bytes error (maybe fixed) : 0
Inconsistency in error sectors : 0
Track 11
Filename : /Kid.Cudi.Man.On.The.Moon.II.The.Legend.Of.Mr.Rager.2010.FLAC-HDC/11. Maniac (feat. Cage and St. Vincent).flac
Track gain : -7.17 dB
Peak : 1.000000
CRC32 hash (test run) : B8454FE1
CRC32 hash : B8454FE1
CRC32 hash (skip zero) : 85F2158F
AccurateRip signature : DB5D86AC
->Track not present in AccurateRip database.
Statistics
Read error : 0
Skipped (treated as error) : 0
Edge jitter error (maybe fixed) : 0
Atom jitter error (maybe fixed) : 0
Drift error (maybe fixed) : 0
Dropped bytes error (maybe fixed) : 0
Duplicated bytes error (maybe fixed) : 0
Inconsistency in error sectors : 0
Track 12
Filename : /Kid.Cudi.Man.On.The.Moon.II.The.Legend.Of.Mr.Rager.2010.FLAC-HDC/12. Mr. Rager.flac
Track gain : -8.10 dB
Peak : 1.000000
CRC32 hash (test run) : 2E5B1B3B
CRC32 hash : 2E5B1B3B
CRC32 hash (skip zero) : 67A2515C
AccurateRip signature : FED3A4DA
->Track not present in AccurateRip database.
Statistics
Read error : 0
Skipped (treated as error) : 0
Edge jitter error (maybe fixed) : 0
Atom jitter error (maybe fixed) : 0
Drift error (maybe fixed) : 0
Dropped bytes error (maybe fixed) : 0
Duplicated bytes error (maybe fixed) : 0
Inconsistency in error sectors : 0
Track 13
Filename : /Kid.Cudi.Man.On.The.Moon.II.The.Legend.Of.Mr.Rager.2010.FLAC-HDC/13. These Worries (feat. Mary J. Blige).flac
Track gain : -10.35 dB
Peak : 1.000000
CRC32 hash (test run) : BA300B1D
CRC32 hash : BA300B1D
CRC32 hash (skip zero) : C1A56849
AccurateRip signature : BAC83E7F
->Track not present in AccurateRip database.
Statistics
Read error : 0
Skipped (treated as error) : 0
Edge jitter error (maybe fixed) : 0
Atom jitter error (maybe fixed) : 0
Drift error (maybe fixed) : 0
Dropped bytes error (maybe fixed) : 0
Duplicated bytes error (maybe fixed) : 0
Inconsistency in error sectors : 0
Track 14
Filename : /Kid.Cudi.Man.On.The.Moon.II.The.Legend.Of.Mr.Rager.2010.FLAC-HDC/14. The End (feat. GLC, Chip Tha Ripper and Nicole Wray).flac
Pre-gap length : 00:00:41
Track gain : -8.76 dB
Peak : 0.964783
CRC32 hash (test run) : B968FD63
CRC32 hash : B968FD63
CRC32 hash (skip zero) : EA19418B
AccurateRip signature : 759DF5A3
->Track not present in AccurateRip database.
Statistics
Read error : 0
Skipped (treated as error) : 0
Edge jitter error (maybe fixed) : 0
Atom jitter error (maybe fixed) : 0
Drift error (maybe fixed) : 0
Dropped bytes error (maybe fixed) : 0
Duplicated bytes error (maybe fixed) : 0
Inconsistency in error sectors : 0
Track 15
Filename : /Kid.Cudi.Man.On.The.Moon.II.The.Legend.Of.Mr.Rager.2010.FLAC-HDC/15. All Along.flac
Pre-gap length : 00:00:45
Track gain : -11.29 dB
Peak : 0.994080
CRC32 hash (test run) : F3E999B0
CRC32 hash : F3E999B0
CRC32 hash (skip zero) : D9384105
AccurateRip signature : 55B66726
->Track not present in AccurateRip database.
Statistics
Read error : 0
Skipped (treated as error) : 0
Edge jitter error (maybe fixed) : 0
Atom jitter error (maybe fixed) : 0
Drift error (maybe fixed) : 0
Dropped bytes error (maybe fixed) : 0
Duplicated bytes error (maybe fixed) : 0
Inconsistency in error sectors : 0
Track 16
Filename : /Kid.Cudi.Man.On.The.Moon.II.The.Legend.Of.Mr.Rager.2010.FLAC-HDC/16. Ghost!.flac
Track gain : -9.84 dB
Peak : 1.000000
CRC32 hash (test run) : 7A0F620B
CRC32 hash : 7A0F620B
CRC32 hash (skip zero) : 5FBE3261
AccurateRip signature : AA120BE7
->Track not present in AccurateRip database.
Statistics
Read error : 0
Skipped (treated as error) : 0
Edge jitter error (maybe fixed) : 0
Atom jitter error (maybe fixed) : 0
Drift error (maybe fixed) : 0
Dropped bytes error (maybe fixed) : 0
Duplicated bytes error (maybe fixed) : 0
Inconsistency in error sectors : 0
Track 17
Filename : /Kid.Cudi.Man.On.The.Moon.II.The.Legend.Of.Mr.Rager.2010.FLAC-HDC/17. Trapped In My Mind.flac
Track gain : -7.37 dB
Peak : 1.000000
CRC32 hash (test run) : 92CD98CA
CRC32 hash : 92CD98CA
CRC32 hash (skip zero) : B7CA2B8D
AccurateRip signature : 8FFA32E0
->Track not present in AccurateRip database.
Statistics
Read error : 0
Skipped (treated as error) : 0
Edge jitter error (maybe fixed) : 0
Atom jitter error (maybe fixed) : 0
Drift error (maybe fixed) : 0
Dropped bytes error (maybe fixed) : 0
Duplicated bytes error (maybe fixed) : 0
Inconsistency in error sectors : 0
Some inconsistencies found
End of status report

sub97

Пост 19-Ноя-2010 20:37

[Цитировать] 

В том-то и проблема что откуда я качал нету лога

bob911

Пост 19-Ноя-2010 20:16

[Цитировать] 

Я видел твои раздачи и знаю что лог нужен)
Мне сказали что лог можно получить если сам рипаешь, а это с рутрекера т.е не мое.
не парься выкладывай лог с того треккера откуда качал Kid Kudi

sub97

Пост 19-Ноя-2010 20:12

[Цитировать] 

Я видел твои раздачи и знаю что лог нужен)
Мне сказали что лог можно получить если сам рипаешь, а это с рутрекера т.е не мое.

bob911

Пост 19-Ноя-2010 19:56

[Цитировать] 

Надо Log добавить - а то закроют раздачу
P.S. - посмори как у меня оформленно и так же сделай icon_smile

sub97

Пост 19-Ноя-2010 16:46

[Цитировать] 

Kid Cudi - Man on the Moon: The End of Day Жанр: Rap/Hip-Hop
Издатель: G.O.O.D Music
Официальный сайт: www.kidcudi.com
Год выпуска: 2009
Формат: ALAC (tracks)
Продолжительность: 01:03:18
Тексты: Отсутствуют
Трэклист:
1. In My Dreams (Cudder Anthem)
2. Soundtrack 2 My Life
3. Simple As…
4. Mr. Solo Dolo (Nightmare)
5. Heart of a Lion (KiD CuDi Theme Music)
6. My World ft. Billy Cravens
7. Day N Nite (Nightmare)
8. Sky Might Fall
9. Enter Galactic (Love Connection Part 1)
10. Alive (Nightmare) ft. RATATAT
11. CuDi Zone
12. Make Her Say ft. Kanye West & Common
13. Pursuit of Happiness (Nightmare) ft. MGMT & RATATAT
14. Hyyerrr ft. Chip Tha Ripper
15. Up, Up & Away (The Wake & Bake Song)
16.Day 'n' Nite (Crookers Remix)(Bonus)
Технические данные:

Сонограмма

Red_Bandit

Пост 16-Ноя-2010 09:09

[Цитировать] 

bob911, укажите общую продолжительность звучания.

bob911

Пост 15-Ноя-2010 19:02

[Цитировать] 

Styles P. - Дискография
Жанр: East Coast Rap
Лэйбл: D-Block Records/Ruff Ryders/Koch Records
Год выпуска: 2002-2007
Формат: ALAC (tracks)
Тексты: Отсутствуют
Официальный сайт: www.myspace.com/stylesp // http://stylesp.net/
Продолжительность: 3:02:14

Styles P. - A Gangster And a Gentleman (2002)

Styles P. "- A Gangster And a Gentleman" (2002)

Жанр: East Coast Rap
Год выпуска: 2002
Источник: Flac Tracks
Издатель: Ruff Ryder/Universal
Формат: ALAC (tracks)
Продолжительность: 1:19:55
Тексты: Отсутствуют
Трэклист:
1. Intro
2. Good Times
3. Yall Know We In Here - (featuring Swizz Beatz/P.K.)
4. Gangster And A Gentleman, A
5. Black Magic - (featuring Angie Stone)
6. Daddy Get That Cash - (featuring Lil' Mo)
7. Lick Shots - (featuring Jadakiss/Sheek/J-Hood)
8. And I Came To - (featuring Eve/Sheek)
9. Get Paid
10. A** Bag (Skit)
11. I'm A Ruffryder - (featuring Jadakiss)
12. Soul Clap
13. We Thugs (My Niggas) - (featuring Jadakiss/Sheek)
14. Styles - (featuring Jadakiss)
15. Barbershop (Skit)
16. Listen
17. Niggas Flippin (Skit)
18. Y'all Don't Wanna F*** - (featuring M.O.P.)
19. S*** Done Changed (Skit) - (featuring Styles/Garf)
20. Nobody Believes Me - (featuring Sheek/Cross/J-Hood)
21. Dedication (Skit) - (featuring Styles)
22. My Brother
23. Outro - (featuring Styles)
24. Life, The - (bonus track)

Log

EAC extraction logfile from 12. December 2007, 1:59 for CD
Styles P / A Gangster And A Gentleman
Used drive : HL-DT-STDVD-RW GSA-H11N Adapter: 1 ID: 0
Read mode : Secure with NO C2, accurate stream, disable cache
Read offset correction : 667
Overread into Lead-In and Lead-Out : No
Used output format : C:\Program Files\Exact Audio Copy\flac.exe (User Defined Encoder)
192 kBit/s
Additional command line options : -8 -A tukey(0.25) -A gauss(0.1875) -b 4096 -V -T "artist=%a" -T "title=%t" -T "album=%g" -T "date=%y" -T "tracknumber=%n" -T "genre=%m" %s --sector-align
Other options :
Fill up missing offset samples with silence : Yes
Delete leading and trailing silent blocks : No
Installed external ASPI interface
Track 1
Filename C:\Documents and Settings\Owner.TAVIS\My Documents\Downloads\CD Rips\Styles P - A Gangster And a Gentleman (FLAC)\01 - Styles P - Intro.wav
Pre-gap length 0:00:02.00
Peak level 100.0 %
Track quality 100.0 %
Test CRC 3169BC80
Copy CRC 3169BC80
Copy OK
Track 2
Filename C:\Documents and Settings\Owner.TAVIS\My Documents\Downloads\CD Rips\Styles P - A Gangster And a Gentleman (FLAC)\02 - Styles P - Good Times.wav
Peak level 100.0 %
Track quality 99.9 %
Test CRC 33B0FC87
Copy CRC 33B0FC87
Copy OK
Track 3
Filename C:\Documents and Settings\Owner.TAVIS\My Documents\Downloads\CD Rips\Styles P - A Gangster And a Gentleman (FLAC)\03 - Styles P - Y'all Know We In Here feat. Swizz Beatz & PK.wav
Peak level 100.0 %
Track quality 100.0 %
Test CRC 55D4141A
Copy CRC 55D4141A
Copy OK
Track 4
Filename C:\Documents and Settings\Owner.TAVIS\My Documents\Downloads\CD Rips\Styles P - A Gangster And a Gentleman (FLAC)\04 - Styles P - A Gangster And A Gentlemen.wav
Peak level 100.0 %
Track quality 100.0 %
Test CRC 0E8F82A6
Copy CRC 0E8F82A6
Copy OK
Track 5
Filename C:\Documents and Settings\Owner.TAVIS\My Documents\Downloads\CD Rips\Styles P - A Gangster And a Gentleman (FLAC)\05 - Styles P - Black Magic feat. Angie Stone.wav
Peak level 100.0 %
Track quality 100.0 %
Test CRC F3802045
Copy CRC F3802045
Copy OK
Track 6
Filename C:\Documents and Settings\Owner.TAVIS\My Documents\Downloads\CD Rips\Styles P - A Gangster And a Gentleman (FLAC)\06 - Styles P - Daddy Get That Cash feat. Lil' Mo.wav
Peak level 100.0 %
Track quality 100.0 %
Test CRC E3C670C1
Copy CRC E3C670C1
Copy OK
Track 7
Filename C:\Documents and Settings\Owner.TAVIS\My Documents\Downloads\CD Rips\Styles P - A Gangster And a Gentleman (FLAC)\07 - Styles P - Lick Shots feat. Jadakiss, Sheek & J-Hood.wav
Peak level 100.0 %
Track quality 100.0 %
Test CRC EF6E5AF5
Copy CRC EF6E5AF5
Copy OK
Track 8
Filename C:\Documents and Settings\Owner.TAVIS\My Documents\Downloads\CD Rips\Styles P - A Gangster And a Gentleman (FLAC)\08 - Styles P - And I Came To... feat. Eve & Sheek.wav
Peak level 100.0 %
Track quality 100.0 %
Test CRC F3B49905
Copy CRC F3B49905
Copy OK
Track 9
Filename C:\Documents and Settings\Owner.TAVIS\My Documents\Downloads\CD Rips\Styles P - A Gangster And a Gentleman (FLAC)\09 - Styles P - Get Paid.wav
Peak level 100.0 %
Track quality 100.0 %
Test CRC 508FDEB4
Copy CRC 508FDEB4
Copy OK
Track 10
Filename C:\Documents and Settings\Owner.TAVIS\My Documents\Downloads\CD Rips\Styles P - A Gangster And a Gentleman (FLAC)\10 - Styles P - Ass Bag (Skit).wav
Peak level 100.0 %
Track quality 100.0 %
Test CRC 152A0907
Copy CRC 152A0907
Copy OK
Track 11
Filename C:\Documents and Settings\Owner.TAVIS\My Documents\Downloads\CD Rips\Styles P - A Gangster And a Gentleman (FLAC)\11 - Styles P - I'm A Ruff Ryder.wav
Peak level 100.0 %
Track quality 100.0 %
Test CRC EAFB84AD
Copy CRC EAFB84AD
Copy OK
Track 12
Filename C:\Documents and Settings\Owner.TAVIS\My Documents\Downloads\CD Rips\Styles P - A Gangster And a Gentleman (FLAC)\12 - Styles P - Soul Clap.wav
Peak level 100.0 %
Track quality 100.0 %
Test CRC B7232953
Copy CRC B7232953
Copy OK
Track 13
Filename C:\Documents and Settings\Owner.TAVIS\My Documents\Downloads\CD Rips\Styles P - A Gangster And a Gentleman (FLAC)\13 - Styles P - We Thugs (My Niggas) feat. Jadakiss & Sheek.wav
Peak level 100.0 %
Track quality 99.9 %
Test CRC AAB0E8CB
Copy CRC AAB0E8CB
Copy OK
Track 14
Filename C:\Documents and Settings\Owner.TAVIS\My Documents\Downloads\CD Rips\Styles P - A Gangster And a Gentleman (FLAC)\14 - Styles P - Styles feat. Jadakiss.wav
Peak level 100.0 %
Track quality 99.9 %
Test CRC 30022B85
Copy CRC 30022B85
Copy OK
Track 15
Filename C:\Documents and Settings\Owner.TAVIS\My Documents\Downloads\CD Rips\Styles P - A Gangster And a Gentleman (FLAC)\15 - Styles P - Barbershop (Skit).wav
Peak level 100.0 %
Track quality 100.0 %
Test CRC D5F95B17
Copy CRC D5F95B17
Copy OK
Track 16
Filename C:\Documents and Settings\Owner.TAVIS\My Documents\Downloads\CD Rips\Styles P - A Gangster And a Gentleman (FLAC)\16 - Styles P - Listen.wav
Peak level 100.0 %
Track quality 100.0 %
Test CRC F19EA3E3
Copy CRC F19EA3E3
Copy OK
Track 17
Filename C:\Documents and Settings\Owner.TAVIS\My Documents\Downloads\CD Rips\Styles P - A Gangster And a Gentleman (FLAC)\17 - Styles P - Niggas Flippin (Skit).wav
Peak level 87.6 %
Track quality 100.0 %
Test CRC 66BA5900
Copy CRC 66BA5900
Copy OK
Track 18
Filename C:\Documents and Settings\Owner.TAVIS\My Documents\Downloads\CD Rips\Styles P - A Gangster And a Gentleman (FLAC)\18 - Styles P - Y'all Don't Wanna Fuck feat. M.O.P..wav
Peak level 100.0 %
Track quality 100.0 %
Test CRC 0091EA14
Copy CRC 0091EA14
Copy OK
Track 19
Filename C:\Documents and Settings\Owner.TAVIS\My Documents\Downloads\CD Rips\Styles P - A Gangster And a Gentleman (FLAC)\19 - Styles P - Shit Done Changed (Skit) feat. Styles & Garf.wav
Peak level 100.0 %
Track quality 100.0 %
Test CRC 7557DB38
Copy CRC 7557DB38
Copy OK
Track 20
Filename C:\Documents and Settings\Owner.TAVIS\My Documents\Downloads\CD Rips\Styles P - A Gangster And a Gentleman (FLAC)\20 - Styles P - Nobody Believes Me feat. Sheek, Cross & J-Hood.wav
Peak level 100.0 %
Track quality 100.0 %
Test CRC 78ADC0F1
Copy CRC 78ADC0F1
Copy OK
Track 21
Filename C:\Documents and Settings\Owner.TAVIS\My Documents\Downloads\CD Rips\Styles P - A Gangster And a Gentleman (FLAC)\21 - Styles P - Dedication (Skit).wav
Peak level 100.0 %
Track quality 100.0 %
Test CRC 16360CB3
Copy CRC 16360CB3
Copy OK
Track 22
Filename C:\Documents and Settings\Owner.TAVIS\My Documents\Downloads\CD Rips\Styles P - A Gangster And a Gentleman (FLAC)\22 - Styles P - My Brother.wav
Peak level 100.0 %
Track quality 100.0 %
Test CRC 900E5C7B
Copy CRC 900E5C7B
Copy OK
Track 23
Filename C:\Documents and Settings\Owner.TAVIS\My Documents\Downloads\CD Rips\Styles P - A Gangster And a Gentleman (FLAC)\23 - Styles P - Outro.wav
Pre-gap length 0:00:01.73
Peak level 100.0 %
Track quality 100.0 %
Test CRC 6EB3E8F3
Copy CRC 6EB3E8F3
Copy OK
Track 24
Filename C:\Documents and Settings\Owner.TAVIS\My Documents\Downloads\CD Rips\Styles P - A Gangster And a Gentleman (FLAC)\24 - Styles P - The Life (Bonus Track).wav
Pre-gap length 0:00:01.90
Peak level 100.0 %
Track quality 100.0 %
Test CRC 71223F01
Copy CRC 71223F01
Copy OK
No errors occured
End of status report

Сонограмма

Styles P. - Time Is Money (2006)

Styles P. - Time Is Money (2006)

Жанр: East Coast Rap
Год выпуска: 2006
Источник: Flac Tracks
Издатель: Ruff Ryders/Interscope
Формат: ALAC (tracks)
Продолжительность: 44:47
Тексты: Отсутствуют
Трэклист:
1. G Joint (3:16)
2. Testify (feat. Talib Kweli) (3:26)
3. How We Live (3:54)
4. Real Shit (feat. Gerald Levert) (3:32)
5. Who Want a Problem (remix) (feat. Swizz Beatz and the Lox) (3:23)
6. Favorite Drug (feat. Rashad) (3:33)
7. Can You Believe It (feat. Akon) (4:10)
8. Kick It Like That (feat. Jagged Edge) (4:16)
9. I'm Black (feat. Marsha from Floetry) (3:46)
10. Fire and Pain (feat. Sizzla) (4:19)
11. Burn One Down (feat. FlipSyde) (3:26)
12. Leave a Message (3:47)

Log

Exact Audio Copy V0.99 prebeta 4 from 23. January 2008
EAC extraction logfile from 24. July 2008, 16:03
Styles P / Time is Money
Used drive : SONY CDRWDVD CRX310S Adapter: 0 ID: 2
Read mode : Secure
Utilize accurate stream : Yes
Defeat audio cache : Yes
Make use of C2 pointers : No
Combined read/write offset correction : 0
Overread into Lead-In and Lead-Out : No
Fill up missing offset samples with silence : Yes
Delete leading and trailing silent blocks : No
Null samples used in CRC calculations : No
Used interface : Native Win32 interface for Win NT & 2000
Gap handling : Not detected, thus appended to previous track
Used output format : User Defined Encoder
Selected bitrate : 768 kBit/s
Quality : High
Add ID3 tag : Yes
Command line compressor : C:\Program Files\Exact Audio Copy\FLAC\FLAC.EXE
Additional command line options : -6 -V -T "ARTIST=%a" -T "TITLE=%t" -T "ALBUM=%g" -T "DATE=%y" -T "TRACKNUMBER=%n" -T "GENRE=%m" -T "COMMENT=%e" %s -o %d
TOC of the extracted CD
Track | Start | Length | Start sector | End sector
---------------------------------------------------------
1 | 0:00.00 | 3:15.47 | 0 | 14671
2 | 3:15.47 | 3:26.13 | 14672 | 30134
3 | 6:41.60 | 3:53.62 | 30135 | 47671
4 | 10:35.47 | 3:32.05 | 47672 | 63576
5 | 14:07.52 | 3:22.55 | 63577 | 78781
6 | 17:30.32 | 3:33.08 | 78782 | 94764
7 | 21:03.40 | 4:09.57 | 94765 | 113496
8 | 25:13.22 | 4:16.30 | 113497 | 132726
9 | 29:29.52 | 3:45.58 | 132727 | 149659
10 | 33:15.35 | 4:19.10 | 149660 | 169094
11 | 37:34.45 | 3:25.55 | 169095 | 184524
12 | 41:00.25 | 3:47.25 | 184525 | 201574
Track 1
Filename C:\Users\ryan\Downloads\Styles P - Time is Money (2006)\01 G Joint.wav
Peak level 100.0 %
Track quality 99.9 %
Copy CRC F37DC872
Copy OK
Track 2
Filename C:\Users\ryan\Downloads\Styles P - Time is Money (2006)\02 Testify (feat. Talib Kweli).wav
Peak level 100.0 %
Track quality 100.0 %
Copy CRC E4DBE828
Copy OK
Track 3
Filename C:\Users\ryan\Downloads\Styles P - Time is Money (2006)\03 How We Live.wav
Peak level 100.0 %
Track quality 100.0 %
Copy CRC 7BDF2DB0
Copy OK
Track 4
Filename C:\Users\ryan\Downloads\Styles P - Time is Money (2006)\04 Real Shit (feat. Gerald Levert).wav
Peak level 100.0 %
Track quality 100.0 %
Copy CRC 102F44C3
Copy OK
Track 5
Filename C:\Users\ryan\Downloads\Styles P - Time is Money (2006)\05 Who Want a Problem (Rmx) (feat. Swizz Beatz and The Lox).wav
Peak level 100.0 %
Track quality 100.0 %
Copy CRC 74B80F5B
Copy OK
Track 6
Filename C:\Users\ryan\Downloads\Styles P - Time is Money (2006)\06 Favorite Drug (feat. Rashad).wav
Peak level 100.0 %
Track quality 100.0 %
Copy CRC FE75F046
Copy OK
Track 7
Filename C:\Users\ryan\Downloads\Styles P - Time is Money (2006)\07 Can You Believe That (feat. Akon).wav
Peak level 100.0 %
Track quality 100.0 %
Copy CRC CC595ACA
Copy OK
Track 8
Filename C:\Users\ryan\Downloads\Styles P - Time is Money (2006)\08 Kick it Like That (feat. Jagged Edge).wav
Peak level 100.0 %
Track quality 100.0 %
Copy CRC 57B92F43
Copy OK
Track 9
Filename C:\Users\ryan\Downloads\Styles P - Time is Money (2006)\09 I'm Black (feat. Marsha from Floetry).wav
Peak level 100.0 %
Track quality 100.0 %
Copy CRC DD6DF2A6
Copy OK
Track 10
Filename C:\Users\ryan\Downloads\Styles P - Time is Money (2006)\10 Fire & Pain (feat. Sizzla).wav
Peak level 100.0 %
Track quality 100.0 %
Copy CRC 71B2C0E2
Copy OK
Track 11
Filename C:\Users\ryan\Downloads\Styles P - Time is Money (2006)\11 Burn One Down (feat. Flipsyde).wav
Peak level 100.0 %
Track quality 100.0 %
Copy CRC 1AF9FBB1
Copy OK
Track 12
Filename C:\Users\ryan\Downloads\Styles P - Time is Money (2006)\12 Leave a Message.wav
Peak level 100.0 %
Track quality 100.0 %
Copy CRC D17E0712
Copy OK
No errors occurred
End of status report

Сонограмма

Styles P. - Super Gangster (Extraordinary Gentleman) (2007)

Styles P. - Super Gangster (Extraordinary Gentleman) (2007)

Жанр: East Coast Rap
Год выпуска: 2007
Источник: Flac Tracks
Издатель: Phantom Ent., Koch Records, Ruff Ryders
Формат: ALAC (tracks)
Продолжительность: 57:52
Тексты: Отсутствуют
Трэклист:
1. Intro
2. Blow Your Mind - (with Swizz Beatz)
3. Let's Go - (with Ray J)
4. Alone In the Street
5. In It To Win It - (with Bully)
6. All I Know Is Pain - (with The Alchemist)
7. Got My Eyes On You - (with Akon)
8. Green Piece Of Paper
9. Holiday - (with Max B)
10. Look At Her
11. Da 80's
12. Interlude 1 - (with Comedian Tony Roberts)
13. Shoot N****s - (with Raw Buck)
14. Super Gangster
15. Star Of the State - (with Ghostface Killah)
16. U Ain't Ready For Me - (with Beanie Sigel)
17. Interlude 2 - (with Comedian Tony Roberts)
18. Gangster, Gangster - (with Jadakiss/Sheek Louch)
19. Cause I'm Black - (with Black Thought)

Log

Exact Audio Copy V0.99 prebeta 3 from 28. July 2007
EAC extraction logfile from 21. December 2007, 22:23
Styles P / Super Gangster (Extraordinary Gentleman)
Used drive : HP DVD Writer 840b Adapter: 3 ID: 1
Read mode : Secure
Utilize accurate stream : Yes
Defeat audio cache : No
Make use of C2 pointers : No
Read offset correction : 102
Overread into Lead-In and Lead-Out : No
Fill up missing offset samples with silence : Yes
Delete leading and trailing silent blocks : No
Null samples used in CRC calculations : Yes
Used interface : Native Win32 interface for Win NT & 2000
Gap handling : Appended to previous track
Used output format : User Defined Encoder
Selected bitrate : 128 kBit/s
Quality : High
Add ID3 tag : Yes
Command line compressor : C:\Program Files\FLAC\flac.exe
Additional command line options : -8 -A tukey(0.25) -A gauss(0.1875) -b 4096 -V -T "artist=%a" -T "title=%t" -T "album=%g" -T "date=%y" -T "tracknumber=%n" -T "genre=%m" %s --sector-align
TOC of the extracted CD
Track | Start | Length | Start sector | End sector
---------------------------------------------------------
1 | 0:00.00 | 0:41.74 | 0 | 3148
2 | 0:41.74 | 3:34.11 | 3149 | 19209
3 | 4:16.10 | 3:46.15 | 19210 | 36174
4 | 8:02.25 | 3:42.53 | 36175 | 52877
5 | 11:45.03 | 4:29.56 | 52878 | 73108
6 | 16:14.59 | 3:44.29 | 73109 | 89937
7 | 19:59.13 | 3:52.65 | 89938 | 107402
8 | 23:52.03 | 3:38.55 | 107403 | 123807
9 | 27:30.58 | 2:56.48 | 123808 | 137055
10 | 30:27.31 | 2:47.06 | 137056 | 149586
11 | 33:14.37 | 2:38.21 | 149587 | 161457
12 | 35:52.58 | 1:05.67 | 161458 | 166399
13 | 36:58.50 | 3:44.20 | 166400 | 183219
14 | 40:42.70 | 2:52.68 | 183220 | 196187
15 | 43:35.63 | 3:28.11 | 196188 | 211798
16 | 47:03.74 | 3:00.49 | 211799 | 225347
17 | 50:04.48 | 0:37.60 | 225348 | 228182
18 | 50:42.33 | 4:03.37 | 228183 | 246444
19 | 54:45.70 | 3:06.13 | 246445 | 260407
Track 1
Filename H:\MY__RIPPED\Styles P Super Gangster (Extraordinary Gentleman) 2007\01 Track01.wav
Pre-gap length 0:00:02.00
Peak level 98.8 %
Track quality 100.0 %
Test CRC 462C8C06
Copy CRC 462C8C06
Track not present in AccurateRip database
Copy OK
Track 2
Filename H:\MY__RIPPED\Styles P Super Gangster (Extraordinary Gentleman) 2007\02 Track02.wav
Peak level 98.8 %
Track quality 100.0 %
Test CRC 9C0141B3
Copy CRC 9C0141B3
Track not present in AccurateRip database
Copy OK
Track 3
Filename H:\MY__RIPPED\Styles P Super Gangster (Extraordinary Gentleman) 2007\03 Track03.wav
Peak level 98.8 %
Track quality 100.0 %
Test CRC 160DCEFA
Copy CRC 160DCEFA
Track not present in AccurateRip database
Copy OK
Track 4
Filename H:\MY__RIPPED\Styles P Super Gangster (Extraordinary Gentleman) 2007\04 Track04.wav
Peak level 98.8 %
Track quality 100.0 %
Test CRC 0C1C08F0
Copy CRC 0C1C08F0
Track not present in AccurateRip database
Copy OK
Track 5
Filename H:\MY__RIPPED\Styles P Super Gangster (Extraordinary Gentleman) 2007\05 Track05.wav
Peak level 97.7 %
Track quality 100.0 %
Test CRC F1E35DB5
Copy CRC F1E35DB5
Track not present in AccurateRip database
Copy OK
Track 6
Filename H:\MY__RIPPED\Styles P Super Gangster (Extraordinary Gentleman) 2007\06 Track06.wav
Peak level 98.8 %
Track quality 100.0 %
Test CRC DDC0DE02
Copy CRC DDC0DE02
Track not present in AccurateRip database
Copy OK
Track 7
Filename H:\MY__RIPPED\Styles P Super Gangster (Extraordinary Gentleman) 2007\07 Track07.wav
Peak level 98.8 %
Track quality 100.0 %
Test CRC B0F113BB
Copy CRC B0F113BB
Track not present in AccurateRip database
Copy OK
Track 8
Filename H:\MY__RIPPED\Styles P Super Gangster (Extraordinary Gentleman) 2007\08 Track08.wav
Peak level 98.8 %
Track quality 100.0 %
Test CRC 1577E4B7
Copy CRC 1577E4B7
Track not present in AccurateRip database
Copy OK
Track 9
Filename H:\MY__RIPPED\Styles P Super Gangster (Extraordinary Gentleman) 2007\09 Track09.wav
Peak level 98.8 %
Track quality 99.9 %
Test CRC 9C3700EC
Copy CRC 9C3700EC
Track not present in AccurateRip database
Copy OK
Track 10
Filename H:\MY__RIPPED\Styles P Super Gangster (Extraordinary Gentleman) 2007\10 Track10.wav
Peak level 98.8 %
Track quality 100.0 %
Test CRC 885C1E55
Copy CRC 885C1E55
Track not present in AccurateRip database
Copy OK
Track 11
Filename H:\MY__RIPPED\Styles P Super Gangster (Extraordinary Gentleman) 2007\11 Track11.wav
Peak level 98.8 %
Track quality 100.0 %
Test CRC C1399690
Copy CRC C1399690
Track not present in AccurateRip database
Copy OK
Track 12
Filename H:\MY__RIPPED\Styles P Super Gangster (Extraordinary Gentleman) 2007\12 Track12.wav
Peak level 98.8 %
Track quality 100.0 %
Test CRC EF0E82E6
Copy CRC EF0E82E6
Track not present in AccurateRip database
Copy OK
Track 13
Filename H:\MY__RIPPED\Styles P Super Gangster (Extraordinary Gentleman) 2007\13 Track13.wav
Peak level 98.8 %
Track quality 100.0 %
Test CRC 6E04E01C
Copy CRC 6E04E01C
Track not present in AccurateRip database
Copy OK
Track 14
Filename H:\MY__RIPPED\Styles P Super Gangster (Extraordinary Gentleman) 2007\14 Track14.wav
Peak level 98.8 %
Track quality 100.0 %
Test CRC 5912704B
Copy CRC 5912704B
Track not present in AccurateRip database
Copy OK
Track 15
Filename H:\MY__RIPPED\Styles P Super Gangster (Extraordinary Gentleman) 2007\15 Track15.wav
Peak level 98.8 %
Track quality 100.0 %
Test CRC 89406292
Copy CRC 89406292
Track not present in AccurateRip database
Copy OK
Track 16
Filename H:\MY__RIPPED\Styles P Super Gangster (Extraordinary Gentleman) 2007\16 Track16.wav
Peak level 98.8 %
Track quality 99.9 %
Test CRC 2AFE9BA3
Copy CRC 2AFE9BA3
Track not present in AccurateRip database
Copy OK
Track 17
Filename H:\MY__RIPPED\Styles P Super Gangster (Extraordinary Gentleman) 2007\17 Track17.wav
Peak level 98.8 %
Track quality 100.0 %
Test CRC C736E25F
Copy CRC C736E25F
Track not present in AccurateRip database
Copy OK
Track 18
Filename H:\MY__RIPPED\Styles P Super Gangster (Extraordinary Gentleman) 2007\18 Track18.wav
Peak level 98.8 %
Track quality 100.0 %
Test CRC A3A5C788
Copy CRC A3A5C788
Track not present in AccurateRip database
Copy OK
Track 19
Filename H:\MY__RIPPED\Styles P Super Gangster (Extraordinary Gentleman) 2007\19 Track19.wav
Peak level 98.8 %
Track quality 100.0 %
Test CRC 88EB7C11
Copy CRC 88EB7C11
Track not present in AccurateRip database
Copy OK
None of the tracks are present in the AccurateRip database
No errors occurred
End of status report

Сонограмма


Доп инфо: Ценителям стиля стоит скачать равнодушными не останетесь!
Всем кто качал мои раздачи советую качнуть, качество на высоте минуча и читка в том числе )))

Red_Bandit

Пост 16-Ноя-2010 08:59

[Цитировать] 

bob911, обложку исправьте.

bob911

Пост 13-Ноя-2010 21:31

[Цитировать] 

Styles of Beyond - 2000 Fold (1998)
Жанр: Hip - Hop, Underground rap
Год выпуска: 1998
Источник: Flac Tracks
Издатель: Bilawn / SpyTech / Mammoth / Ideal
Формат: ALAC (tracks)
Продолжительность: 59:02 min
Тексты: Отсутствуют
Официальный сайт: http://www.myspace.com/stylesofbeyond
Трэклист:
1. Exile (Intro) – 1:56
2. Styles of Beyond (Style Warz) – 4:50
3. Hollograms – 3:49
4. Dangerous Minds – 2:47
5. Spies Like Us – 3:38
6. Winnetka Exit – 4:13
7. Muuvon – 4:02
8. Wild Style (interlude) – 0:12
9. Easy Back It Up – 2:59
10. Survival Tactics – 3:38
11. Skullyanamayshun – 2:20
12. Part II (Endangered) – 3:03
13. Gollaxowelcome – 4:31
14. Click Beat Box (interlude) – 0:47
15. Many Styles – 4:43
16. Killer Instinct – 4:04
17. 2000 Fold – 4:59
18. Come Out Your Frame (interlude) – 1:30
19. Marco Polo – 4:04
20. Outro – 0:30
Технические данные:

Лог граббера

:
Exact Audio Copy V0.99 prebeta 4 from 23. January 2008
EAC extraction logfile from 16. April 2009, 21:00
Styles of Beyond / 2000 Fold
Used drive : MATSHITADVD-RAM UJ-841S Adapter: 1 ID: 0
Read mode : Secure
Utilize accurate stream : Yes
Defeat audio cache : Yes
Make use of C2 pointers : No
Read offset correction : 102
Overread into Lead-In and Lead-Out : No
Fill up missing offset samples with silence : Yes
Delete leading and trailing silent blocks : No
Null samples used in CRC calculations : No
Used interface : Native Win32 interface for Win NT & 2000
Gap handling : Appended to previous track
Used output format : User Defined Encoder
Selected bitrate : 768 kBit/s
Quality : High
Add ID3 tag : No
Command line compressor : C:\Program Files\Exact Audio Copy\FLAC\FLAC.EXE
Additional command line options : -V -8 -T "artist=%a" -T "title=%t" -T "album=%g" -T "date=%y" -T "tracknumber=%n" -T "genre=%m" %s
TOC of the extracted CD
Track | Start | Length | Start sector | End sector
---------------------------------------------------------
1 | 0:00.00 | 1:42.43 | 0 | 7692
2 | 1:42.43 | 4:49.01 | 7693 | 29368
3 | 6:31.44 | 3:51.68 | 29369 | 46761
4 | 10:23.37 | 2:47.64 | 46762 | 59350
5 | 13:11.26 | 3:38.26 | 59351 | 75726
6 | 16:49.52 | 4:11.06 | 75727 | 94557
7 | 21:00.58 | 4:02.30 | 94558 | 112737
8 | 25:03.13 | 0:12.00 | 112738 | 113637
9 | 25:15.13 | 3:02.36 | 113638 | 127323
10 | 28:17.49 | 3:36.46 | 127324 | 143569
11 | 31:54.20 | 2:22.38 | 143570 | 154257
12 | 34:16.58 | 3:07.63 | 154258 | 168345
13 | 37:24.46 | 4:36.09 | 168346 | 189054
14 | 42:00.55 | 0:48.43 | 189055 | 192697
15 | 42:49.23 | 4:45.20 | 192698 | 214092
16 | 47:34.43 | 4:00.73 | 214093 | 232165
17 | 51:35.41 | 4:55.00 | 232166 | 254290
18 | 56:30.41 | 1:28.28 | 254291 | 260918
19 | 57:58.69 | 3:57.21 | 260919 | 278714
20 | 61:56.15 | 1:03.11 | 278715 | 283450
Track 1
Filename C:\Documents and Settings\Administrator\My Documents\My Music\Styles of Beyond\2000 Fold\01 - Exile (Intro).wav
Pre-gap length 0:00:02.00
Peak level 98.0 %
Track quality 100.0 %
Test CRC 78FFB0EC
Copy CRC 78FFB0EC
Track not present in AccurateRip database
Copy OK
Track 2
Filename C:\Documents and Settings\Administrator\My Documents\My Music\Styles of Beyond\2000 Fold\02 - Styles of Beyond (Style Warz).wav
Peak level 98.0 %
Track quality 100.0 %
Test CRC 227510DE
Copy CRC 227510DE
Track not present in AccurateRip database
Copy OK
Track 3
Filename C:\Documents and Settings\Administrator\My Documents\My Music\Styles of Beyond\2000 Fold\03 - Hollograms.wav
Peak level 95.0 %
Track quality 100.0 %
Test CRC 7C36337B
Copy CRC 7C36337B
Track not present in AccurateRip database
Copy OK
Track 4
Filename C:\Documents and Settings\Administrator\My Documents\My Music\Styles of Beyond\2000 Fold\04 - Dangerous Minds.wav
Peak level 97.6 %
Track quality 100.0 %
Test CRC 7F5363CE
Copy CRC 7F5363CE
Track not present in AccurateRip database
Copy OK
Track 5
Filename C:\Documents and Settings\Administrator\My Documents\My Music\Styles of Beyond\2000 Fold\05 - Spies Like Us.wav
Peak level 95.0 %
Track quality 100.0 %
Test CRC 0B1628A5
Copy CRC 0B1628A5
Track not present in AccurateRip database
Copy OK
Track 6
Filename C:\Documents and Settings\Administrator\My Documents\My Music\Styles of Beyond\2000 Fold\06 - Winnetka Exit.wav
Peak level 95.0 %
Track quality 100.0 %
Test CRC 422C2948
Copy CRC 422C2948
Track not present in AccurateRip database
Copy OK
Track 7
Filename C:\Documents and Settings\Administrator\My Documents\My Music\Styles of Beyond\2000 Fold\07 - Muuvon.wav
Peak level 97.6 %
Track quality 99.9 %
Test CRC 79EF350B
Copy CRC 79EF350B
Track not present in AccurateRip database
Copy OK
Track 8
Filename C:\Documents and Settings\Administrator\My Documents\My Music\Styles of Beyond\2000 Fold\08 - Wild Style (Interlude).wav
Pre-gap length 0:00:00.45
Peak level 48.6 %
Track quality 100.0 %
Test CRC 4EF26539
Copy CRC 4EF26539
Track not present in AccurateRip database
Copy OK
Track 9
Filename C:\Documents and Settings\Administrator\My Documents\My Music\Styles of Beyond\2000 Fold\09 - Back It Up.wav
Peak level 95.0 %
Track quality 100.0 %
Test CRC 1683CCDA
Copy CRC 1683CCDA
Track not present in AccurateRip database
Copy OK
Track 10
Filename C:\Documents and Settings\Administrator\My Documents\My Music\Styles of Beyond\2000 Fold\10 - Survival Tactics.wav
Peak level 84.7 %
Track quality 100.0 %
Test CRC D01570D0
Copy CRC D01570D0
Track not present in AccurateRip database
Copy OK
Track 11
Filename C:\Documents and Settings\Administrator\My Documents\My Music\Styles of Beyond\2000 Fold\11 - Skullyanamayshun.wav
Peak level 95.0 %
Track quality 100.0 %
Test CRC CD168A50
Copy CRC CD168A50
Track not present in AccurateRip database
Copy OK
Track 12
Filename C:\Documents and Settings\Administrator\My Documents\My Music\Styles of Beyond\2000 Fold\12 - Part II (Endangered).wav
Peak level 95.0 %
Track quality 100.0 %
Test CRC 60DF993D
Copy CRC 60DF993D
Track not present in AccurateRip database
Copy OK
Track 13
Filename C:\Documents and Settings\Administrator\My Documents\My Music\Styles of Beyond\2000 Fold\13 - Gollaxowelcome.wav
Pre-gap length 0:00:00.01
Peak level 97.6 %
Track quality 100.0 %
Test CRC 3EE4971A
Copy CRC 3EE4971A
Track not present in AccurateRip database
Copy OK
Track 14
Filename C:\Documents and Settings\Administrator\My Documents\My Music\Styles of Beyond\2000 Fold\14 - Click Beat Box (Interlude).wav
Peak level 95.0 %
Track quality 100.0 %
Test CRC FE722F3B
Copy CRC FE722F3B
Track not present in AccurateRip database
Copy OK
Track 15
Filename C:\Documents and Settings\Administrator\My Documents\My Music\Styles of Beyond\2000 Fold\15 - Many Styles.wav
Peak level 97.6 %
Track quality 99.9 %
Test CRC DBA97646
Copy CRC DBA97646
Track not present in AccurateRip database
Copy OK
Track 16
Filename C:\Documents and Settings\Administrator\My Documents\My Music\Styles of Beyond\2000 Fold\16 - Killer Instinct.wav
Peak level 84.7 %
Track quality 100.0 %
Test CRC 997A8FA4
Copy CRC 997A8FA4
Track not present in AccurateRip database
Copy OK
Track 17
Filename C:\Documents and Settings\Administrator\My Documents\My Music\Styles of Beyond\2000 Fold\17 - 2000 Fold.wav
Peak level 97.6 %
Track quality 100.0 %
Test CRC 25B0CBE3
Copy CRC 25B0CBE3
Track not present in AccurateRip database
Copy OK
Track 18
Filename C:\Documents and Settings\Administrator\My Documents\My Music\Styles of Beyond\2000 Fold\18 - Come Out Your Frame (Interlude).wav
Peak level 95.0 %
Track quality 100.0 %
Test CRC EEDEE16C
Copy CRC EEDEE16C
Track not present in AccurateRip database
Copy OK
Track 19
Filename C:\Documents and Settings\Administrator\My Documents\My Music\Styles of Beyond\2000 Fold\19 - Marco Polo.wav
Peak level 95.0 %
Track quality 100.0 %
Test CRC EEEA99D6
Copy CRC EEEA99D6
Track not present in AccurateRip database
Copy OK
Track 20
Filename C:\Documents and Settings\Administrator\My Documents\My Music\Styles of Beyond\2000 Fold\20 - Outro.wav
Peak level 97.6 %
Track quality 100.0 %
Test CRC 8FFF45C6
Copy CRC 8FFF45C6
Track not present in AccurateRip database
Copy OK
None of the tracks are present in the AccurateRip database
No errors occurred
End of status report

Сонограмма

 

Текущее время: Сегодня 12:22

Часовой пояс: GMT + 4