Новые торренты

Самые скачиваемые

5 C

5

 

MSVGePard ®

Longevity:
10 years
Posts:
1087

The Dead Weather - Horehound- Страна: США
Жанр: Alternative rock, garage rock revival, blues-rock, indie rock, neo-psychedelia
Официальный сайт: www.thedeadweather.com
Издатель: Sony BMG
Год выпуска: 2009
Источник: Audio CD
Продолжительность: 00:43:55
Тексты: присутствуют
Трэклист:
1. "60 Feet Tall" Fertita/Mosshart 5:33
2. "Hang You from the Heavens" Fertita/Mosshart 3:39
3. "I Cut Like A Buffalo" White 3:28
4. "So Far from Your Weapon" Mosshart 3:40
5. "Treat Me Like Your Mother" Fertita/Lawrence/Mosshart/White 4:10
6. "Rocking Horse" Mosshart/White 2:59
7. "New Pony" Bob Dylan 3:58
8. "Bone House" Fertita/Lawrence/Mosshart/White 3:27
9. "3 Birds" Fertita/Lawrence/Mosshart/White 3:45
10. "No Hassle Night" Mosshart/White 2:56
11. "Will There Be Enough Water?" Fertita/White 6:20
Состав группы: Элисон Моссхарт (вокал, гитара), Джек Уайт (ударные, вокал, гитара), Дин Фертита (гитара, клавишные) и Джеком Лоуренсом (бас-гитара)
-
The Dead Weather - дитя Уайта и фронтменши The Kills Элисон Моссхарт, свежераспаханное брезентовое поле для рассадки новой партии огурцов гараж-блюз-ривайвла, отличная возможность поиграть в Летова и Янку североамериканского разлива. Их встреча была предрешена в недрах космического айтюнса - скелетный постпанк The Kills уже с самого первого альбома широко сравнивали с The White Stripes, и дуэтная динамика обеих групп, разумеется, играла в этих уподоблениях не последнюю роль. Когда прошлой осенью Элисон выползла на подпевки к The Raconteurs, стало понятно, что творческое соитие неизбежно. Так и оказалось - прошедшим январем Уайт и Моссхарт, ангажировав басиста The Raconteurs Джека Лоуренса и клавишника Queens Of The Stone Age Дина Фертиту, заперлись на три недели в студии. Элисон схватила микрофон, а Джек взялся за барабанные палочки. И вот что из этого получилось.
-

Лог XLD

Код:
X Lossless Decoder version 20100918 (122.1)
XLD extraction logfile from 2010-09-28 22:35:23 +0400
The Good, The Bad & The Queen / The Good, The Bad & The Queen
Used drive : HL-DT-ST DVDRW  GSA-S10N (revision AP09)
Use cdparanoia mode     : YES (CDParanoia III 10.2 engine)
Disable audio cache     : OK for the drive with cache less than 2750KB
Make use of C2 pointers : NO
Read offset correction  : 667
Max retry count         : 100
Gap status              : Analyzed, Appended
TOC of the extracted CD
     Track |   Start  |  Length  | Start sector | End sector
    ---------------------------------------------------------
        1  | 00:00:00 | 03:05:73 |         0    |    13947
        2  | 03:05:73 | 03:28:14 |     13948    |    29561
        3  | 06:34:12 | 03:54:10 |     29562    |    47121
        4  | 10:28:22 | 02:42:65 |     47122    |    59336
        5  | 13:11:12 | 03:59:48 |     59337    |    77309
        6  | 17:10:60 | 02:38:34 |     77310    |    89193
        7  | 19:49:19 | 03:47:21 |     89194    |   106239
        8  | 23:36:40 | 03:10:02 |    106240    |   120491
        9  | 26:46:42 | 02:30:00 |    120492    |   131741
       10  | 29:16:42 | 04:15:03 |    131742    |   150869
       11  | 33:31:45 | 02:26:25 |    150870    |   161844
       12  | 35:57:70 | 07:00:22 |    161845    |   193366
List of alternate offset correction values
        #  | Absolute | Relative | Confidence
    ------------------------------------------
        1  |    655   |    -12   |      4
        2  |      3   |   -664   |      4
Track 01
    Filename : /Users/wstfl/Music/01 The Good, The Bad & The Queen - History Song.m4a
    Pre-gap length : 00:02:00
    CRC32 hash (test run)  : 0C6F13C7
    CRC32 hash             : 0C6F13C7
    CRC32 hash (skip zero) : 0D3DE882
    AccurateRip signature  : 6F940BF7
        ->Accurately ripped! (confidence 200)
    Statistics
        Read error                           : 0
        Skipped (treated as error)           : 0
        Edge jitter error (maybe fixed)      : 0
        Atom jitter error (maybe fixed)      : 0
        Drift error (maybe fixed)            : 0
        Dropped bytes error (maybe fixed)    : 0
        Duplicated bytes error (maybe fixed) : 0
        Inconsistency in error sectors       : 0
Track 02
    Filename : /Users/wstfl/Music/02 The Good, The Bad & The Queen - 80's Life.m4a
    Pre-gap length : 00:00:28
    CRC32 hash (test run)  : 0826BD38
    CRC32 hash             : 0826BD38
    CRC32 hash (skip zero) : 6F7FAB31
    AccurateRip signature  : 617CB1C1
        ->Accurately ripped! (confidence 200)
    Statistics
        Read error                           : 0
        Skipped (treated as error)           : 0
        Edge jitter error (maybe fixed)      : 0
        Atom jitter error (maybe fixed)      : 0
        Drift error (maybe fixed)            : 0
        Dropped bytes error (maybe fixed)    : 0
        Duplicated bytes error (maybe fixed) : 0
        Inconsistency in error sectors       : 0
Track 03
    Filename : /Users/wstfl/Music/03 The Good, The Bad & The Queen - Northern Whale.m4a
    Pre-gap length : 00:00:27
    CRC32 hash (test run)  : 90B94288
    CRC32 hash             : 90B94288
    CRC32 hash (skip zero) : DB53EC80
    AccurateRip signature  : 75C41F25
        ->Accurately ripped! (confidence 200)
    Statistics
        Read error                           : 0
        Skipped (treated as error)           : 0
        Edge jitter error (maybe fixed)      : 0
        Atom jitter error (maybe fixed)      : 0
        Drift error (maybe fixed)            : 0
        Dropped bytes error (maybe fixed)    : 0
        Duplicated bytes error (maybe fixed) : 0
        Inconsistency in error sectors       : 0
Track 04
    Filename : /Users/wstfl/Music/04 The Good, The Bad & The Queen - Kingdom of Doom.m4a
    Pre-gap length : 00:00:28
    CRC32 hash (test run)  : 3E8C02E3
    CRC32 hash             : 3E8C02E3
    CRC32 hash (skip zero) : 7B5070BE
    AccurateRip signature  : 3738BF86
        ->Accurately ripped! (confidence 200)
    Statistics
        Read error                           : 0
        Skipped (treated as error)           : 0
        Edge jitter error (maybe fixed)      : 0
        Atom jitter error (maybe fixed)      : 0
        Drift error (maybe fixed)            : 0
        Dropped bytes error (maybe fixed)    : 0
        Duplicated bytes error (maybe fixed) : 0
        Inconsistency in error sectors       : 0
Track 05
    Filename : /Users/wstfl/Music/05 The Good, The Bad & The Queen - Herculean.m4a
    Pre-gap length : 00:00:28
    CRC32 hash (test run)  : DE9EC1FB
    CRC32 hash             : DE9EC1FB
    CRC32 hash (skip zero) : 7AF1449E
    AccurateRip signature  : A10A6134
        ->Accurately ripped! (confidence 200)
    Statistics
        Read error                           : 0
        Skipped (treated as error)           : 0
        Edge jitter error (maybe fixed)      : 25
        Atom jitter error (maybe fixed)      : 520
        Drift error (maybe fixed)            : 0
        Dropped bytes error (maybe fixed)    : 0
        Duplicated bytes error (maybe fixed) : 0
        Inconsistency in error sectors       : 1
        List of suspicious positions         :
            (1) 02:10:40
Track 06
    Filename : /Users/wstfl/Music/06 The Good, The Bad & The Queen - Behind the Sun.m4a
    Pre-gap length : 00:00:28
    CRC32 hash (test run)  : FB50770B
    CRC32 hash             : FB50770B
    CRC32 hash (skip zero) : 10E5ACBE
    AccurateRip signature  : 2855FB87
        ->Accurately ripped! (confidence 200)
    Statistics
        Read error                           : 0
        Skipped (treated as error)           : 0
        Edge jitter error (maybe fixed)      : 0
        Atom jitter error (maybe fixed)      : 0
        Drift error (maybe fixed)            : 0
        Dropped bytes error (maybe fixed)    : 0
        Duplicated bytes error (maybe fixed) : 0
        Inconsistency in error sectors       : 0
Track 07
    Filename : /Users/wstfl/Music/07 The Good, The Bad & The Queen - The Bunting Song.m4a
    Pre-gap length : 00:00:28
    CRC32 hash (test run)  : AB8FEF54
    CRC32 hash             : AB8FEF54
    CRC32 hash (skip zero) : 5678569C
    AccurateRip signature  : A7A8880F
        ->Accurately ripped! (confidence 200)
    Statistics
        Read error                           : 0
        Skipped (treated as error)           : 0
        Edge jitter error (maybe fixed)      : 0
        Atom jitter error (maybe fixed)      : 0
        Drift error (maybe fixed)            : 0
        Dropped bytes error (maybe fixed)    : 0
        Duplicated bytes error (maybe fixed) : 0
        Inconsistency in error sectors       : 0
Track 08
    Filename : /Users/wstfl/Music/08 The Good, The Bad & The Queen - Nature Springs.m4a
    Pre-gap length : 00:00:28
    CRC32 hash (test run)  : BB2FB357
    CRC32 hash             : BB2FB357
    CRC32 hash (skip zero) : F5EFFA99
    AccurateRip signature  : 28CB29D6
        ->Accurately ripped! (confidence 200)
    Statistics
        Read error                           : 0
        Skipped (treated as error)           : 0
        Edge jitter error (maybe fixed)      : 0
        Atom jitter error (maybe fixed)      : 0
        Drift error (maybe fixed)            : 0
        Dropped bytes error (maybe fixed)    : 0
        Duplicated bytes error (maybe fixed) : 0
        Inconsistency in error sectors       : 0
Track 09
    Filename : /Users/wstfl/Music/09 The Good, The Bad & The Queen - A Soldier's Tale.m4a
    Pre-gap length : 00:00:28
    CRC32 hash (test run)  : 55D9DA34
    CRC32 hash             : 55D9DA34
    CRC32 hash (skip zero) : 6AE1726A
    AccurateRip signature  : F0DD7077
        ->Accurately ripped! (confidence 200)
    Statistics
        Read error                           : 0
        Skipped (treated as error)           : 0
        Edge jitter error (maybe fixed)      : 0
        Atom jitter error (maybe fixed)      : 0
        Drift error (maybe fixed)            : 0
        Dropped bytes error (maybe fixed)    : 0
        Duplicated bytes error (maybe fixed) : 0
        Inconsistency in error sectors       : 0
Track 10
    Filename : /Users/wstfl/Music/10 The Good, The Bad & The Queen - Three Changes.m4a
    Pre-gap length : 00:00:28
    CRC32 hash (test run)  : 7EB63419
    CRC32 hash             : 7EB63419
    CRC32 hash (skip zero) : 5353B1D5
    AccurateRip signature  : EAA685AA
        ->Accurately ripped! (confidence 200)
    Statistics
        Read error                           : 0
        Skipped (treated as error)           : 0
        Edge jitter error (maybe fixed)      : 0
        Atom jitter error (maybe fixed)      : 1
        Drift error (maybe fixed)            : 0
        Dropped bytes error (maybe fixed)    : 0
        Duplicated bytes error (maybe fixed) : 0
        Inconsistency in error sectors       : 0
Track 11
    Filename : /Users/wstfl/Music/11 The Good, The Bad & The Queen - Green Fields.m4a
    Pre-gap length : 00:00:28
    CRC32 hash (test run)  : 243C39A9
    CRC32 hash             : 243C39A9
    CRC32 hash (skip zero) : 8BF765BA
    AccurateRip signature  : 785A7B0C
        ->Accurately ripped! (confidence 200)
    Statistics
        Read error                           : 0
        Skipped (treated as error)           : 0
        Edge jitter error (maybe fixed)      : 0
        Atom jitter error (maybe fixed)      : 0
        Drift error (maybe fixed)            : 0
        Dropped bytes error (maybe fixed)    : 0
        Duplicated bytes error (maybe fixed) : 0
        Inconsistency in error sectors       : 0
Track 12
    Filename : /Users/wstfl/Music/12 The Good, The Bad & The Queen - The Good, The Bad & The Queen.m4a
    Pre-gap length : 00:00:28
    CRC32 hash (test run)  : F201022F
    CRC32 hash             : F201022F
    CRC32 hash (skip zero) : 5AA7E437
    AccurateRip signature  : 8F8927DD
        ->Accurately ripped! (confidence 200)
    Statistics
        Read error                           : 0
        Skipped (treated as error)           : 0
        Edge jitter error (maybe fixed)      : 0
        Atom jitter error (maybe fixed)      : 0
        Drift error (maybe fixed)            : 0
        Dropped bytes error (maybe fixed)    : 0
        Duplicated bytes error (maybe fixed) : 0
        Inconsistency in error sectors       : 0
Some inconsistencies found
End of status report

Сонограмма на трек 60 Feet Tall



Last edited by MSVGePard on 2010-10-01 18:21; edited 2 times in total
[Profile]  [PM] 

Albert

Longevity:
10 years
Posts:
4

спасибо огромное!!! но почему никого нет?
[Profile]  [PM] 

MSVGePard ®

Longevity:
10 years
Posts:
1087

торрент перезалит, просьба скачать его заново
[Profile]  [PM] 

tokerman

Longevity:
9 years 5 months
Posts:
23

"Торрент не может быть открыт, т.к. содержит неверные данные." - так ругнулась трансмиссия.
[Profile]  [PM] 
Display posts from previous:    

The time now is: Today 12:55

All times are GMT + 4 Hours



You cannot post new topics in this forum
You cannot reply to topics in this forum
You cannot edit your posts in this forum
You cannot delete your posts in this forum
You cannot vote in polls in this forum
You cannot attach files in this forum
You cannot download files in this forum