Новые торренты

Самые скачиваемые

5 C

5

 

Red_Bandit ®

Longevity:
10 years
Posts:
169


FAQ по Lossless
ТЕМА ДЛЯ ОБСУЖДЕНИЙ И ВОПРОСОВ
Что такое Apple Lossless
Настройка X Lossless Decoder
Как получить *log файл для образа FLAC Image + cue
Что такое Cue sheet
Что такое Jitter
Как получить сведения о продолжительности звучания альбома
-
Stop complaining. I know what's best for you. © Steve Jobs


Last edited by Red_Bandit on 2010-10-12 22:48; edited 6 times in total
[Profile]  [PM] 

Red_Bandit ®

Longevity:
10 years
Posts:
169

Что такое Apple Lossless
Apple Lossless (также известный как Apple Lossless Encoder, ALE, или Apple Lossless Audio Codec, ALAC) — это аудиокодек для сжатия цифровой музыки без потерь качества, разработанный Apple Inc.
Apple Lossless данные хранятся в контейнере MP4 с расширением .m4a. Хотя Apple Lossless имеет такое же расширение файла, как AAC, это не AAC: данный кодек схож с другими lossless-кодеками, такими как FLAC и др. Плееры iPod с док-разъемами (не shuffle) и свежей прошивкой могут воспроизводить звук формата Apple Lossless. В кодеке не используются какие-либо специфические средства цифрового управления правами (DRM), но использование DRM возможно, поскольку предусмотрено форматом контейнера.
Тесты показали, что сжатые ALAC файлы получаются размером примерно от 40% до 60% размера оригиналов в зависимости от вида музыки, подобно другим lossless-форматам. Кроме того, скорость, с которой он может быть декодирован, делает его полезным для устройств с ограниченной производительностью, таких как iPod.
Apple Lossless Encoder был представлен в качестве одного из компонентов QuickTime 6.5.1 28 апреля 2004 года и как функция iTunes 4.5. Кодек используется также в AirPort Express в AirTunes осуществления.
Декодер для формата Apple Lossless есть в свободной библиотеке libavcodec. Это означает, что любой мультимедийный проигрыватель на основе этой библиотеки, включая VLC media player и MPlayer, может проигрывать Apple Lossless-файлы.
©Wikipedia
Stop complaining. I know what's best for you. © Steve Jobs
[Profile]  [PM] 

Red_Bandit ®

Longevity:
10 years
Posts:
169

Как получить *log файл для образа FLAC Image + cue
При условии прохождения образа по базе данных AccurateRip раздача получит статус - Проверенно.
Допустим у вас имеется образ диска FLAC который был загружен по средством Enternet без лога. Вы хотите преобразовать его с помощью X Lossless Decoder в ALAC и разместить на трекре, но без *log файла, ваша раздача будет иметь статус - "сомнительно". Как быть?
На самом деле получить внятную информацию о качестве рипа, для такого образа возможно. Для этого необходимо сопоставить его с базой данных AcсurateRip. Да бы получить представление о точности подобной проверки, рассмотрим пример ниже:
Имеется фирменный CD диск, с которого создан рип во FLAC Image + cue с сохранением лога. (смотреть оригинальный лог)

Пример оригинального лога


X Lossless Decoder version 20100123 (115.4)
XLD extraction logfile from 2010-01-30 11:36:50 +0300
Depeche Mode / Freelove
Used drive : ASUS DRW-2014L1T (revision 1.02)
Use cdparanoia mode : YES (CDParanoia III 10.2 engine)
Disable audio cache : OK for the drive with cache less than 2750KB
Make use of C2 pointers : NO
Read offset correction : 6
Max retry count : 100
TOC of the extracted CD
Track | Start | Length | Start sector | End sector
---------------------------------------------------------
1 | 00:00:00 | 05:30:12 | 0 | 24761
2 | 05:30:12 | 06:53:20 | 24762 | 55756
3 | 12:23:32 | 04:24:45 | 55757 | 75601
All Tracks
Filename : /Volumes/WORKSPACE/XLD/Freelove.flac
CRC32 hash (test run) : 6530651D
CRC32 hash : 6530651D
CRC32 hash (skip zero) : E0EAAA5B
Statistics
Read error : 0
Skipped (treated as error) : 0
Edge jitter error (maybe fixed) : 0
Atom jitter error (maybe fixed) : 0
Drift error (maybe fixed) : 0
Dropped bytes error (maybe fixed) : 0
Duplicated bytes error (maybe fixed) : 0
Inconsistency in error sectors : 0
Track 01
Pre-gap length : 00:02:00
CRC32 hash (test run) : 3D9C4CEC
CRC32 hash : 3D9C4CEC
CRC32 hash (skip zero) : BD0D69B9
AccurateRip signature : 3452BBB4
->Accurately ripped! (confidence 17)
Statistics
Read error : 0
Skipped (treated as error) : 0
Edge jitter error (maybe fixed) : 0
Atom jitter error (maybe fixed) : 0
Drift error (maybe fixed) : 0
Dropped bytes error (maybe fixed) : 0
Duplicated bytes error (maybe fixed) : 0
Inconsistency in error sectors : 0
Track 02
Pre-gap length : 00:02:35
CRC32 hash (test run) : C2B1D8CD
CRC32 hash : C2B1D8CD
CRC32 hash (skip zero) : 3AC52547
AccurateRip signature : E82DA3F7
->Accurately ripped! (confidence 17)
Statistics
Read error : 0
Skipped (treated as error) : 0
Edge jitter error (maybe fixed) : 0
Atom jitter error (maybe fixed) : 0
Drift error (maybe fixed) : 0
Dropped bytes error (maybe fixed) : 0
Duplicated bytes error (maybe fixed) : 0
Inconsistency in error sectors : 0
Track 03
Pre-gap length : 00:02:30
CRC32 hash (test run) : 67090999
CRC32 hash : 67090999
CRC32 hash (skip zero) : F20472CE
AccurateRip signature : 969A7FA8
->Accurately ripped! (confidence 19)
Statistics
Read error : 0
Skipped (treated as error) : 0
Edge jitter error (maybe fixed) : 0
Atom jitter error (maybe fixed) : 0
Drift error (maybe fixed) : 0
Dropped bytes error (maybe fixed) : 0
Duplicated bytes error (maybe fixed) : 0
Inconsistency in error sectors : 0
No errors occurred
End of status report

Открываем файл *cue в программе X Lossless Decoder и обращаемся к меню - Файл / Проверить файл с помощью AcсurateRip
После чего получаем лог файл образа, пример которого представлен ниже:

Пример лога проверки по базе данных AccurateRip


X Lossless Decoder version 20100123 (115.4)
XLD AccurateRip checking logfile
TOC of the selected file
Track | Start | Length | Start sector | End sector
---------------------------------------------------------
1 | 00:00:00 | 05:30:12 | 0 | 24761
2 | 05:30:12 | 06:53:20 | 24762 | 55756
3 | 12:23:32 | 04:24:45 | 55757 | 75601
All Tracks
Album gain : -8.34 dB
Peak : 1.000000
CRC32 hash : 6530651D
CRC32 hash (skip zero) : E0EAAA5B
Track 01
Track gain : -6.20 dB
Peak : 1.000000
CRC32 hash : 3D9C4CEC
CRC32 hash (skip zero) : BD0D69B9
AccurateRip signature : 3452BBB4
->Accurately ripped! (confidence 17)
Track 02
Track gain : -8.83 dB
Peak : 1.000000
CRC32 hash : C2B1D8CD
CRC32 hash (skip zero) : 3AC52547
AccurateRip signature : E82DA3F7
->Accurately ripped! (confidence 17)
Track 03
Track gain : -7.93 dB
Peak : 1.000000
CRC32 hash : 67090999
CRC32 hash (skip zero) : F20472CE
AccurateRip signature : 969A7FA8
->Accurately ripped! (confidence 19)
End of status report

Увы, мы не получаем параметров, которые молги бы пролить свет на режим чтения граббера, тип привода, значения параметра коррекции смещения offset.
Однако, как показывает сопоставление секций лога ниже, прочие значения полностью идентичны (слева - оригинал/справа - проверочный) и имеют положительное значение параметра confidence. Который гласит, что информация о 17 подобных рипах присутствует в базе данных AcсurateRip и это логичным образом повышает статус доверия как к источнику, так и качеству рипа.
Stop complaining. I know what's best for you. © Steve Jobs


Last edited by Red_Bandit on 2010-02-22 06:19; edited 1 time in total
[Profile]  [PM] 

Red_Bandit ®

Longevity:
10 years
Posts:
169

Что такое Cue sheet
Cue sheet, или файл cue, — это файл с метаданными, которые описывают раскладку треков CD или DVD диска. Файлы cue имеют текстовый формат и, как правило, имеют расширение .cue. Впервые файлы cue sheet появились в программе CDRWIN. Теперь они поддерживаются многими приложениями авторинга оптических дисков и мультимедиапроигрывателями.
Для Audio-CD cue файлы указывают названия и исполнителей альбома и его треков, а также имена одного или более используемых аудиофайлов. Часто используются файлы MP3, WAV и образы диска, хотя некоторые программы поддерживают другие форматы. Файлы cue особенно полезны при прожиге или прослушивании концертных записей или диджейских миксов, в которых все треки записаны в один файл.
Кроме того, cue файлы используются для многих типов CD в связке с образом диска. Обычно образ диска имеет расширение .bin.
Использование для записи CD
Формат CD позволяет быстрый переход к любому треку диска. Когда источником аудиоданных для CD является один файл, например запись живого выступления группы или сведённый диджейский микс, он займет один единственный трек на CD, что препятствует лёгкой навигации. Cue sheet предоставляет необходимые метаданные для этой цели. Если программа записи поддерживает, то на диск также записываются автор и название каждого трека (содержащиеся в cue) в виде CD-TEXT.
Использование для обычного прослушивания
Проигрывание аудиофайлов на компьютере или портативных MP3 плеерах стало более распространённым в последние годы. Поэтому также полезно применять решения на основе cue файлов к этим новым средствам воспроизведения. Существует два стандартных подхода к этому. Самый универсальный — разделить оригинальный аудиофайл на несколько отдельных файлов — по файлу на трек. Это решение работает для всех средств программного и аппаратного воспроизведения. Недостатком являются возникающие паузы между треками, которые особенно неприятны в случае сведённого микса, когда один трек плавно перетекает в следующий.
Другой подход — внедрять текущий cue файл в сам аудиоплеер. Это предполагает либо предоставление псевдо плейлиста (к примеру, дополнительное окно) для содержимого cue файла, или добавление псевдо записи для каждого трека в главный плейлист. Когда аудиофайл содержит весь проигрывамый материал, открывается cue sheet, и его треки отображаются в специальном окне или в окне главного плейлиста. Это позволяет слушателю видеть проигрываемую в данный момент композицию и переходить к любому треку внутри набора.
Синтаксис cue sheet
Cue файлы — обычные текстовые файлы, содержащие команды с одним или более параметром. Эти команды описывают данные как в целом, так и для отдельных треков. Наиболее используемые команды:-TITLE
В начале: название работы в целом. После строки TRACK: название соответствующего трека.
PERFORMER
В начале: Исполнитель или создатель работы в целом. После строки TRACK: Исполнитель или создатель соответствующего трека.
FILE
Имя файла, содержащего данные.
TRACK
Определяет трек, с указанием номера и типа данных. Последующие строки, такие как INDEX, TITLE и PERFORMER, предоставляют информацию касательно этого трека и могут располагаться в любом порядке.
INDEX
Указывает начальную позицию внутри данных, где начинается данный трек, в формате ММ:СС:ФР (минута-секунда-фрейм, например 04:18:63 = 4 минуты, 18 секунд, 63 фрейма). Макcимально допустимое значение для фреймов CDDA составляет 74.-
Примеры
MP3 файл faithless — live in berlin.mp3, содержит запись живого выступления группы Faithless. На этом концерте Faithless исполнили восемь песен. Трек-лист должен выглядеть следующим образом:
01. Faithless - Reverence
02. Faithless - She's My Baby
03. Faithless - Take The Long Way Home
04. Faithless - Insomnia
05. Faithless - Bring The Family Back
06. Faithless - Salva Mea
07. Faithless - Dirty Old Man
08. Faithless - God Is A DJ
Учитывая тот факт, что MP3 файл содержит всё выступление целиком, запись его на диск в неизменном виде сделает невозможным переход к отдельным песням. Чтобы написать cue sheet, сначала нужно найти места в MP3 файле, где начинается каждая песня. Учтите, что время абсолютное: каждый трек должен иметь время позднее чем предыдущие.
Первые три строки обозначат информацию о диске. За ними следует информация для каждого трека, снабжаемая отступами. Строка INDEX 01 остается той же самой для каждого трека, за исключением значения времени, которое за ней следует. TITLE и PERFORMER не обязательны.
Код:
TITLE "Live in Berlin, 1998"
PERFORMER "Faithless"
FILE "faithless - live in berlin.mp3" MP3
  TRACK 01 AUDIO
    TITLE "Reverence"
    PERFORMER "Faithless"
    INDEX 01 00:00:00
  TRACK 02 AUDIO
    TITLE "She's My Baby"
    PERFORMER "Faithless"
    INDEX 01 06:42:00
  TRACK 03 AUDIO
    TITLE "Take The Long Way Home"
    PERFORMER "Faithless"
    INDEX 01 10:54:00
  TRACK 04 AUDIO
    TITLE "Insomnia"
    PERFORMER "Faithless"
    INDEX 01 17:04:00
  TRACK 05 AUDIO
    TITLE "Bring The Family Back"
    PERFORMER "Faithless"
    INDEX 01 25:44:00
  TRACK 06 AUDIO
    TITLE "Salva Mea"
    PERFORMER "Faithless"
    INDEX 01 30:50:00
  TRACK 07 AUDIO
    TITLE "Dirty Old Man"
    PERFORMER "Faithless"
    INDEX 01 38:24:00
  TRACK 08 AUDIO
    TITLE "God Is A DJ"
    PERFORMER "Faithless"
    INDEX 01 42:35:00
Пример cue-файла, используемого в связке с образом CD:
Код:
FILE "sampleimage.bin" BINARY
  TRACK 01 MODE1/2352
  INDEX 01 00:00:00

©Wikipedia
Stop complaining. I know what's best for you. © Steve Jobs


Last edited by Red_Bandit on 2010-02-22 06:19; edited 1 time in total
[Profile]  [PM] 

Red_Bandit ®

Longevity:
10 years
Posts:
169

Что такое Jitter
Подобного рода ошибка может возникать при не верных настройках граббера в процессе копирования CD.
Джи?ттер (англ. jitter — дрожание) — нежелательные фазовые и/или частотные случайные отклонения передаваемого сигнала. Возникают вследствие нестабильности задающего генератора, изменений параметров линии передачи во времени и различной скорости распространения частотных составляющих одного и того же сигнала.
В цифровых системах проявляется в виде случайных быстрых (с частотой 10 Гц и более) изменений местоположения фронтов цифрового сигнала во времени, что приводит к рассинхронизации и, как следствие, искажению передаваемой информации. Например, если фронт имеет малую крутизну или «отстал» по времени, то цифровой сигнал как бы запаздывает, сдвигается относительно значащего момента времени — момента времени, в который происходит оценка сигнала.
Джиттер является одной из основных проблем при проектировании устройств цифровой электроники, в частности, цифровых интерфейсов. Недостаточно аккуратный расчет джиттера может привести к его накоплению при прохождении цифрового сигнала по тракту и, в конечном счёте, к неработоспособности устройства.
При цифровой записи звука джиттер вносит в сигнал искажения, подобные детонации — явлению, вызванному неравномерностью движения магнитной ленты в аналоговом магнитофоне вследствие несовершенства лентопротяжного механизма. Однако вносимые цифровым джиттером искажения существенно заметнее искажений звука, вносимых детонацией. Видимо, это связано с большей «мягкостью» и «плавностью» детонационных искажений (можно сказать, «аналогового джиттера»), обусловленных эластичностью магнитной ленты и инерционностью механических элементов лентопротяжных механизмов.
В области телекоммуникаций джиттером называется первая производная задержки прохождения данных по времени.
Причины возникновения джиттера
- Фазовые шумы петли ФАПЧ (фазовой автоподстройки частоты) устройства, синхронизируемого внешним сигналом. Джиттер, вызываемый ФАПЧ, проявляется при прослушивании материала с записывающего устройства, синхронизируемого от воспроизводящего устройства.
- АЦП. В современных цифровых системах звукозаписи и воспроизведения основным источником джиттера является АЦП. Нынешние полностью цифровые студийные синхронизаторы достаточно совершенны и часто вносят джиттер меньший, чем АЦП.
Влияние джиттера на характеристики АЦП
Частота дискретизации АЦП обычно задаётся кварцевым генератором, а любой кварцевый генератор (особенно дешёвый) имеет ненулевые фазовые шумы. Таким образом, моменты времени получения отсчетов сигнала (дискретов) расположены на временной оси не совсем равномерно. Это приводит к размыванию спектра сигнала и ухудшению отношения сигнал/шум. Кроме того, на высокочастотных компонентах сигнала джиттер может привести к пульсации амплитуд.
©Wikipedia
Stop complaining. I know what's best for you. © Steve Jobs
[Profile]  [PM] 

Red_Bandit ®

Longevity:
10 years
Posts:
169

Как получить сведения о продолжительности звучания альбома
Для этого необходимо запустить приложение iTunes, добавить альбом в каталог и обратить внимания на информационную строку в нижней части окна.
Строка вывода информации кликабельна и позволяет получать сведения в различных вариантах, один из которых как раз позволяет вывести время в формате 00:00:00. При этом информация будет получена как в случае выделения альбома, так и плей-листа, в который временно можно "перетащить" несколько альбомов.
Stop complaining. I know what's best for you. © Steve Jobs
[Profile]  [PM] 
Display posts from previous:    

The time now is: Today 22:37

All times are GMT + 4 Hours



You cannot post new topics in this forum
You cannot reply to topics in this forum
You cannot edit your posts in this forum
You cannot delete your posts in this forum
You cannot vote in polls in this forum
You cannot attach files in this forum
You cannot download files in this forum