Новые торренты

Самые скачиваемые

5 C

5

 

yuray ®

Longevity:
11 years
Posts:
3

Down to the Bone - The Best Of
Жанр: Jazz
Издатель: Label: Narada
Официальный сайт: http://www.downtothebone.com/
Год выпуска: 2006
Источник: WavePack +.cue
Продолжительность: 1:10:17
Тексты: нет + обложки встроены в теги
Трэклист:
-
01. - "Staten Island Groove"
02. - "Cellar Funk"
03. - "The Zodiac"
04. - "Black Choice"
05. - "Gotta Get Back To You"
06. - "Brooklyn Heights"
07. - "Electra Glide"
08. - "I'll always hold you close (ft. Brian Auger)"
09. - "Carlito's Way"
10. - "Pure Funk"
11. - "Long Way From Brooklyn"

-Технические данные:

Сонограмма на трек - Long Way From Brooklyn

Log - Exact Audio Copy V0.99 prebeta 3 from 28. July 2007

Exact Audio Copy V0.99 prebeta 3 from 28. July 2007
EAC extraction logfile from 9. February 2010, 13:43
Down to the Bone / Best Of
Used drive : Optiarc DVD RW AD-5200A Adapter: 1 ID: 0
Read mode : Secure
Utilize accurate stream : Yes
Defeat audio cache : Yes
Make use of C2 pointers : No
Read offset correction : 48
Overread into Lead-In and Lead-Out : No
Fill up missing offset samples with silence : Yes
Delete leading and trailing silent blocks : No
Null samples used in CRC calculations : Yes
Used interface : Installed external ASPI interface
Used output format : Internal WAV Routines
Sample format : 44.100 Hz; 16 Bit; Stereo
TOC of the extracted CD
Track | Start | Length | Start sector | End sector
---------------------------------------------------------
1 | 0:00.00 | 6:46.54 | 0 | 30503
2 | 6:46.54 | 5:20.25 | 30504 | 54528
3 | 12:07.04 | 7:49.48 | 54529 | 89751
4 | 19:56.52 | 5:53.40 | 89752 | 116266
5 | 25:50.17 | 5:12.07 | 116267 | 139673
6 | 31:02.24 | 7:13.36 | 139674 | 172184
7 | 38:15.60 | 6:57.05 | 172185 | 203464
8 | 45:12.65 | 5:56.22 | 203465 | 230186
9 | 51:09.12 | 6:46.12 | 230187 | 260648
10 | 57:55.24 | 6:42.23 | 260649 | 290821
11 | 64:37.47 | 5:43.71 | 290822 | 316617
Range status and errors
Selected range
Filename E:\MUSIC\Convert mp3\Down to the Bone - Best Of.wav
Peak level 98.7 %
Range quality 100.0 %
Copy CRC 7E9391FC
Copy OK
No errors occurred
End of status report t
Доп-информация:

Сканы в раздаче

Биография
Провозглашенные королями британского джазового грува Down To The Bone от альбома к альбому совершенствуют свое грувовое звучание – оно становится более сложным, более фанковым и более сочным. Их музыка охватывает все, к чему имеет отношение фанк, соул и джаз. Как заявляет основатель и продюсер группы Стюарт Уэйд (Stuart Wade) «все дело в груве… именно он побуждает людей танцевать, их пальцы постукивать, а головы кивать».
Уэйд и Крис Морганс (Chris Morgans) (последний в проекте уже не участвует) сформировали группу в 1996 году. Предыдущие музыкальные и деловые проекты Уэйда (группа Think Twice и лейбл Internal Bass Records) дали ему столь необходимый опыт, чтобы достичь те музыкальные цели, которые он перед собой поставил. В 2001 году Уэйд решил порвать отношения с лейблом Internal Bass Records. Имея в своем активе три альбома Down To The Bone, альбом New Jazz Hustlers (New Jazz City, 2000 год) и три сборника джаз-фанковой музыки, получивших широкое признание у музыкальных критиков и добравшихся до высших строк чарта US contemporary Jazz Billboard, Уэйд решил не оглядываться назад.
Будучи завзятым меломаном Уэйн является поклонником таких музыкантов как Рэмси Льюис (Ramsey Lewis), Рой Айерс (Roy Ayers) и Лонни Листон Смит (Lonnie Liston Smith). Ретро-стиль, который воздает должное этим классикам, и воплощает звук Down To The Bone, создан уникальным способом. Уэйда можно весьма условно относить к музыкантам, по крайне мере традиционным, он вообще не играет ни на каком инструменте. Вместо этого Уэйд напевает мелодии на диктофон, ну а затем остальные участники группы (состав весьма непостоянен) помогают ему развить идеи и мелодии: вместе, они кладут аккорды и создают ритмы. После этого Уэйд использует образцы звуков различных инструментов и сэмплы из своей библиотеки, и, наконец, с помощью инженера, редактирует и микширует имеющийся материал. Последним шагом в цепочке становится приглашение вокалистов и хороших музыкантов. Вот таким нестандартным способом получается отличная музыка.
Записи: From Manhattan to Staten (1997, Internal Bass); The Urban Grooves: Album II (1999, Internal Bass (в записи принимал участие Reuben Wilson)); Spread the Word: Album III (2000, Internal Bass); Crazy Vibes & Things (2002, Verve/Universal (в записи принимала участие Hil St. Soul)); Cellar Funk (2004, Narada (в записи принимала участие Flora Purim)); Spread Love Like Wildfire (2005, Narada (в записи принимали участие N’Dambi и Jeremy Steig)); The Best Of Down To The Bone (2006, Narada); Supercharged (2007, Narada (в записи принимал участие Roy Ayers)).


Last edited by yuray on 2010-05-05 22:32; edited 6 times in total
[Profile]  [PM] 

Red_Bandit

Longevity:
11 years
Posts:
160

yuray
1 - Шаблон формирования раздачи в настоящий момент не доработан, нужно довести пункты до кондиции вручную как показано в примере
2 - Было бы не плохо указать, что в раздаче присутствуют сканы, т.к. это как минимум влияет на размер, или может представлять для кого-то особую ценность.
3 - У вас в раздаче имеется log файл источника данных, конкретно EAC с выводом в WavePack, что и является форматом источника, который и требуется указать в оформлении. Check лог AccurateRip в данном случае не требуется.
Соответственно в раздачу необходимо включить (оставить) именно лог источника данных, его же представить в оформлении раздачи.
Код:
Exact Audio Copy V0.99 prebeta 3 from 28. July 2007
EAC extraction logfile from 9. February 2010, 13:43
Down to the Bone / Best Of
Used drive  : Optiarc DVD RW AD-5200A   Adapter: 1  ID: 0
Read mode               : Secure
Utilize accurate stream : Yes
Defeat audio cache      : Yes
Make use of C2 pointers : No
Read offset correction                      : 48
Overread into Lead-In and Lead-Out          : No
Fill up missing offset samples with silence : Yes
Delete leading and trailing silent blocks   : No
Null samples used in CRC calculations       : Yes
Used interface                              : Installed external ASPI interface
Used output format : Internal WAV Routines
Sample format      : 44.100 Hz; 16 Bit; Stereo
TOC of the extracted CD
     Track |   Start  |  Length  | Start sector | End sector
    ---------------------------------------------------------
        1  |  0:00.00 |  6:46.54 |         0    |    30503
        2  |  6:46.54 |  5:20.25 |     30504    |    54528
        3  | 12:07.04 |  7:49.48 |     54529    |    89751
        4  | 19:56.52 |  5:53.40 |     89752    |   116266
        5  | 25:50.17 |  5:12.07 |    116267    |   139673
        6  | 31:02.24 |  7:13.36 |    139674    |   172184
        7  | 38:15.60 |  6:57.05 |    172185    |   203464
        8  | 45:12.65 |  5:56.22 |    203465    |   230186
        9  | 51:09.12 |  6:46.12 |    230187    |   260648
       10  | 57:55.24 |  6:42.23 |    260649    |   290821
       11  | 64:37.47 |  5:43.71 |    290822    |   316617
Range status and errors
Selected range
     Filename E:\MUSIC\Convert mp3\Down to the Bone - Best Of.wav
     Peak level 98.7 %
     Range quality 100.0 %
     Copy CRC 7E9391FC
     Copy OK
No errors occurred
End of status report
Исправляйтесь, проверим.
Stop complaining. I know what's best for you. © Steve Jobs
[Profile]  [PM] 

yuray ®

Longevity:
11 years
Posts:
3

Исправил, положил сканы в отдельную папку, удалил лишние логи, перезалил торрент icon_smile
[Profile]  [PM] 

abyrval

Longevity:
11 years
Posts:
3

как по заказу! только что услышал по инет радио - отличная музыка!
[Profile]  [PM] 
Display posts from previous:    

The time now is: Today 11:32

All times are GMT + 4 Hours



You cannot post new topics in this forum
You cannot reply to topics in this forum
You cannot edit your posts in this forum
You cannot delete your posts in this forum
You cannot vote in polls in this forum
You cannot attach files in this forum
You cannot download files in this forum