Новые торренты

Самые скачиваемые

5 C

5

 

VioLet ®

Longevity:
9 years 8 months
Posts:
73

Suicide Silence - No Time To Bleed
Жанр: Deathcore
Год выпуска: 2009
Источник: FLAC tracks
Издатель: Century Media Records
Продолжительность: 0:38:09
Тексты: Отсутствуют
Трэклист:
01. "Wake up" (03:48)
02. "Lifted" (4:07)
03. "Smoke" (3:08)
04. "Something Invisible" (2:57)
05. "No Time To Bleed" (2:22)
06. "Suffer" (3:56)
07. "...And She Bled" (3:55)
08. "Wasted" (3:13)
09. "Your Creations" (3:59)
10. "Genocide" (2:17)
11. "Disengage" (4:03)
12. "Misleading Milligrams" (4:18)

-Технические данные:

Отчет EAC

Exact Audio Copy V0.99 prebeta 4 from 23. January 2008
EAC extraction logfile from 26. June 2009, 21:31
Suicide Silence / No Time To Bleed
Used drive : TEAC DVD+-RW DVW28SLC Adapter: 1 ID: 0
Read mode : Secure
Utilize accurate stream : Yes
Defeat audio cache : Yes
Make use of C2 pointers : No
Read offset correction : 48
Overread into Lead-In and Lead-Out : No
Fill up missing offset samples with silence : Yes
Delete leading and trailing silent blocks : No
Null samples used in CRC calculations : Yes
Used interface : Installed external ASPI interface
Gap handling : Appended to previous track
Used output format : User Defined Encoder
Selected bitrate : 192 kBit/s
Quality : High
Add ID3 tag : No
Command line compressor : C:\Program Files\Exact Audio Copy\flac.exe
Additional command line options : -V -8 -T "artist=%a" -T "title=%t" -T "album=%g" -T "date=%y" -T "tracknumber=%n" -T "genre=%m" %s
TOC of the extracted CD
Track | Start | Length | Start sector | End sector
---------------------------------------------------------
1 | 0:00.00 | 3:48.23 | 0 | 17122
2 | 3:48.23 | 4:07.72 | 17123 | 35719
3 | 7:56.20 | 3:08.58 | 35720 | 49877
4 | 11:05.03 | 2:57.50 | 49878 | 63202
5 | 14:02.53 | 2:22.17 | 63203 | 73869
6 | 16:24.70 | 3:56.48 | 73870 | 91617
7 | 20:21.43 | 3:55.50 | 91618 | 109292
8 | 24:17.18 | 3:13.22 | 109293 | 123789
9 | 27:30.40 | 3:59.41 | 123790 | 141755
10 | 31:30.06 | 2:17.61 | 141756 | 152091
11 | 33:47.67 | 4:03.33 | 152092 | 170349
12 | 37:51.25 | 4:18.00 | 170350 | 189699
Track 1
Filename C:\Users\Ryan\Documents\No Time To Bleed [FLAC]\01 - Suicide Silence - Wake up.wav
Pre-gap length 0:00:02.00
Peak level 100.0 %
Track quality 100.0 %
Test CRC 8A1CE479
Copy CRC 8A1CE479
Track not present in AccurateRip database
Copy OK
Track 2
Filename C:\Users\Ryan\Documents\No Time To Bleed [FLAC]\02 - Suicide Silence - Lifted.wav
Peak level 100.0 %
Track quality 100.0 %
Test CRC B3B5F628
Copy CRC B3B5F628
Track not present in AccurateRip database
Copy OK
Track 3
Filename C:\Users\Ryan\Documents\No Time To Bleed [FLAC]\03 - Suicide Silence - Smoke.wav
Peak level 100.0 %
Track quality 100.0 %
Test CRC 83E39985
Copy CRC 83E39985
Track not present in AccurateRip database
Copy OK
Track 4
Filename C:\Users\Ryan\Documents\No Time To Bleed [FLAC]\04 - Suicide Silence - Something Invisible.wav
Peak level 100.0 %
Track quality 99.9 %
Test CRC 7374CEAC
Copy CRC 7374CEAC
Track not present in AccurateRip database
Copy OK
Track 5
Filename C:\Users\Ryan\Documents\No Time To Bleed [FLAC]\05 - Suicide Silence - No Time To Bleed.wav
Peak level 100.0 %
Track quality 100.0 %
Test CRC 2F11117E
Copy CRC 2F11117E
Track not present in AccurateRip database
Copy OK
Track 6
Filename C:\Users\Ryan\Documents\No Time To Bleed [FLAC]\06 - Suicide Silence - Suffer.wav
Peak level 100.0 %
Track quality 100.0 %
Test CRC 10ACB2C3
Copy CRC 10ACB2C3
Track not present in AccurateRip database
Copy OK
Track 7
Filename C:\Users\Ryan\Documents\No Time To Bleed [FLAC]\07 - Suicide Silence - ...And She Bled.wav
Peak level 100.0 %
Track quality 100.0 %
Test CRC D4CD5B34
Copy CRC D4CD5B34
Track not present in AccurateRip database
Copy OK
Track 8
Filename C:\Users\Ryan\Documents\No Time To Bleed [FLAC]\08 - Suicide Silence - Wasted.wav
Peak level 100.0 %
Track quality 100.0 %
Test CRC 20A094D3
Copy CRC 20A094D3
Track not present in AccurateRip database
Copy OK
Track 9
Filename C:\Users\Ryan\Documents\No Time To Bleed [FLAC]\09 - Suicide Silence - Your Creations.wav
Peak level 100.0 %
Track quality 100.0 %
Test CRC 49EB5323
Copy CRC 49EB5323
Track not present in AccurateRip database
Copy OK
Track 10
Filename C:\Users\Ryan\Documents\No Time To Bleed [FLAC]\10 - Suicide Silence - Genocide.wav
Peak level 100.0 %
Track quality 99.9 %
Test CRC 0CE14FDF
Copy CRC 0CE14FDF
Track not present in AccurateRip database
Copy OK
Track 11
Filename C:\Users\Ryan\Documents\No Time To Bleed [FLAC]\11 - Suicide Silence - Disengage.wav
Peak level 100.0 %
Track quality 100.0 %
Test CRC E05AE5BE
Copy CRC E05AE5BE
Track not present in AccurateRip database
Copy OK
Track 12
Filename C:\Users\Ryan\Documents\No Time To Bleed [FLAC]\12 - Suicide Silence - Misleading Milligrams.wav
Peak level 100.0 %
Track quality 100.0 %
Test CRC 870B1BE4
Copy CRC 870B1BE4
Track not present in AccurateRip database
Copy OK
None of the tracks are present in the AccurateRip database
No errors occurred
End of status report

Сонограмма на трек 05. "No Time To Bleed"

[Profile]  [PM] 
Display posts from previous:    

The time now is: Today 01:35

All times are GMT + 4 Hours



You cannot post new topics in this forum
You cannot reply to topics in this forum
You cannot edit your posts in this forum
You cannot delete your posts in this forum
You cannot vote in polls in this forum
You cannot attach files in this forum
You cannot download files in this forum