Самые скачиваемые

5 C

5

 

Incubus_bass ®

Longevity:
10 years
Posts:
86

Sinful - Омут
Жанр: Black metal
Издатель: Musica Production
Официальный сайт: http://www.sinful.ru
Год выпуска: 2005
Источник: CD
Продолжительность: 37:58:00
Тексты: Отсутствуют
Трэклист:
01. - Intro
02. - Омут
03. - Свет Бездны
04. - Волчья Пасть
05. - Вампир
06. - Холод Манящей Могилы
07. - Полночная Смерть
08. - Outro
-
Технические данные:

Сонограмма на трек - 02. - Омут

Лог граббера

X Lossless Decoder version 20100123 (115.4)
XLD extraction logfile from 2010-05-31 23:37:00 +0400
Sinful / Omyt (Whirlpool)
Used drive : OPTIARC DVD RW AD-5670S (revision 2AHI)
Use cdparanoia mode : YES (CDParanoia III 10.2 engine)
Disable audio cache : OK for the drive with cache less than 2750KB
Make use of C2 pointers : NO
Read offset correction : 48
Max retry count : 100
TOC of the extracted CD
Track | Start | Length | Start sector | End sector
---------------------------------------------------------
1 | 00:00:00 | 01:49:32 | 0 | 8206
2 | 01:49:32 | 08:48:17 | 8207 | 47823
3 | 10:37:49 | 05:26:22 | 47824 | 72295
4 | 16:03:71 | 04:21:20 | 72296 | 91890
5 | 20:25:16 | 04:59:33 | 91891 | 114348
6 | 25:24:49 | 03:44:72 | 114349 | 131220
7 | 29:09:46 | 06:46:12 | 131221 | 161682
8 | 35:55:58 | 02:04:19 | 161683 | 171001
Track 01
Filename : /Users/Incubus/Music/Sinful - Whirpool - 2005/01 Sinful - Intro.m4a
Pre-gap length : 00:02:00
CRC32 hash (test run) : 621BA68B
CRC32 hash : 621BA68B
CRC32 hash (skip zero) : B391D6CE
AccurateRip signature : 7DE58B95
->Accurately ripped! (confidence 2)
Statistics
Read error : 0
Skipped (treated as error) : 0
Edge jitter error (maybe fixed) : 0
Atom jitter error (maybe fixed) : 0
Drift error (maybe fixed) : 0
Dropped bytes error (maybe fixed) : 0
Duplicated bytes error (maybe fixed) : 0
Inconsistency in error sectors : 0
Track 02
Filename : /Users/Incubus/Music/Sinful - Whirpool - 2005/02 Sinful - Whirlpool.m4a
CRC32 hash (test run) : 6CBEAE49
CRC32 hash : 6CBEAE49
CRC32 hash (skip zero) : 711C406E
AccurateRip signature : 68141FDA
->Accurately ripped! (confidence 2)
Statistics
Read error : 0
Skipped (treated as error) : 0
Edge jitter error (maybe fixed) : 0
Atom jitter error (maybe fixed) : 0
Drift error (maybe fixed) : 0
Dropped bytes error (maybe fixed) : 0
Duplicated bytes error (maybe fixed) : 0
Inconsistency in error sectors : 0
Track 03
Filename : /Users/Incubus/Music/Sinful - Whirpool - 2005/03 Sinful - Abyss' Light.m4a
CRC32 hash (test run) : 83EA0E83
CRC32 hash : 83EA0E83
CRC32 hash (skip zero) : 044388B9
AccurateRip signature : 02965D59
->Accurately ripped! (confidence 2)
Statistics
Read error : 0
Skipped (treated as error) : 0
Edge jitter error (maybe fixed) : 0
Atom jitter error (maybe fixed) : 0
Drift error (maybe fixed) : 0
Dropped bytes error (maybe fixed) : 0
Duplicated bytes error (maybe fixed) : 0
Inconsistency in error sectors : 0
Track 04
Filename : /Users/Incubus/Music/Sinful - Whirpool - 2005/04 Sinful - Wolf's Jaws.m4a
CRC32 hash (test run) : 3BDB5A27
CRC32 hash : 3BDB5A27
CRC32 hash (skip zero) : 61E5B65B
AccurateRip signature : F9B5F36C
->Accurately ripped! (confidence 2)
Statistics
Read error : 0
Skipped (treated as error) : 0
Edge jitter error (maybe fixed) : 0
Atom jitter error (maybe fixed) : 0
Drift error (maybe fixed) : 0
Dropped bytes error (maybe fixed) : 0
Duplicated bytes error (maybe fixed) : 0
Inconsistency in error sectors : 0
Track 05
Filename : /Users/Incubus/Music/Sinful - Whirpool - 2005/05 Sinful - Vampire.m4a
CRC32 hash (test run) : F589299F
CRC32 hash : F589299F
CRC32 hash (skip zero) : EB77D36A
AccurateRip signature : 42E570FD
->Accurately ripped! (confidence 2)
Statistics
Read error : 0
Skipped (treated as error) : 0
Edge jitter error (maybe fixed) : 0
Atom jitter error (maybe fixed) : 0
Drift error (maybe fixed) : 0
Dropped bytes error (maybe fixed) : 0
Duplicated bytes error (maybe fixed) : 0
Inconsistency in error sectors : 0
Track 06
Filename : /Users/Incubus/Music/Sinful - Whirpool - 2005/06 Sinful - The Cold of A Luring Grave.m4a
CRC32 hash (test run) : 4B20E2B3
CRC32 hash : 4B20E2B3
CRC32 hash (skip zero) : EA1E96F1
AccurateRip signature : 5121F86F
->Accurately ripped! (confidence 2)
Statistics
Read error : 0
Skipped (treated as error) : 0
Edge jitter error (maybe fixed) : 0
Atom jitter error (maybe fixed) : 0
Drift error (maybe fixed) : 0
Dropped bytes error (maybe fixed) : 0
Duplicated bytes error (maybe fixed) : 0
Inconsistency in error sectors : 0
Track 07
Filename : /Users/Incubus/Music/Sinful - Whirpool - 2005/07 Sinful - Midnight Death.m4a
CRC32 hash (test run) : 153B432E
CRC32 hash : 153B432E
CRC32 hash (skip zero) : BE6EE5CB
AccurateRip signature : 5D50672C
->Accurately ripped! (confidence 2)
Statistics
Read error : 0
Skipped (treated as error) : 0
Edge jitter error (maybe fixed) : 0
Atom jitter error (maybe fixed) : 0
Drift error (maybe fixed) : 0
Dropped bytes error (maybe fixed) : 0
Duplicated bytes error (maybe fixed) : 0
Inconsistency in error sectors : 0
Track 08
Filename : /Users/Incubus/Music/Sinful - Whirpool - 2005/08 Sinful - Outro.m4a
CRC32 hash (test run) : 2E706D12
CRC32 hash : 2E706D12
CRC32 hash (skip zero) : 95F0804D
AccurateRip signature : AACCD6ED
->Accurately ripped! (confidence 2)
Statistics
Read error : 0
Skipped (treated as error) : 0
Edge jitter error (maybe fixed) : 1
Atom jitter error (maybe fixed) : 1
Drift error (maybe fixed) : 0
Dropped bytes error (maybe fixed) : 0
Duplicated bytes error (maybe fixed) : 0
Inconsistency in error sectors : 0
No errors occurred
End of status report

Apple Mac mini 2,53 Ghz, 4 Gb, 320 Gb, GeForce 9400M
[Profile]  [PM] 
Display posts from previous:    

The time now is: Today 12:01

All times are GMT + 4 Hours



You cannot post new topics in this forum
You cannot reply to topics in this forum
You cannot edit your posts in this forum
You cannot delete your posts in this forum
You cannot vote in polls in this forum
You cannot attach files in this forum
You cannot download files in this forum