Новые торренты

Самые скачиваемые

5 C

5

 

Incubus_bass ®

Longevity:
10 years
Posts:
86

Apokefale - Apokefale
Жанр: Black metal, Death`n`Core
Издатель: MSR Productions
Официальный сайт: http://www.apokefale.com
Год выпуска: 2008
Источник: CD
Продолжительность: 35:36:00
Тексты: Отсутствуют
Трэклист:
01. - a (Alfa)
02. -`Post Dictatorial Syndrome
03. - Anaesthetized Morgueazm
04. - K.C.O.D.S.
05. - Code: 6ick, 6ex, 6ix
06. - Aequilibris
07. - Forced Obsolenscene
08. - Torrent Inside Me
09. - Raw
-
Технические данные:

Сонограмма на трек - 01. - a (Alfa)

Лог граббера

X Lossless Decoder version 20100123 (115.4)
XLD extraction logfile from 2010-06-01 00:22:37 +0400
Apokefale / Apokefale
Used drive : OPTIARC DVD RW AD-5670S (revision 2AHI)
Use cdparanoia mode : YES (CDParanoia III 10.2 engine)
Disable audio cache : OK for the drive with cache less than 2750KB
Make use of C2 pointers : NO
Read offset correction : 48
Max retry count : 100
TOC of the extracted CD
Track | Start | Length | Start sector | End sector
---------------------------------------------------------
1 | 00:00:00 | 01:33:57 | 0 | 7031
2 | 01:33:57 | 03:59:54 | 7032 | 25010
3 | 05:33:36 | 04:00:62 | 25011 | 43072
4 | 09:34:23 | 04:05:72 | 43073 | 61519
5 | 13:40:20 | 04:56:40 | 61520 | 83759
6 | 18:36:60 | 04:53:36 | 83760 | 105770
7 | 23:30:21 | 03:29:61 | 105771 | 121506
8 | 27:00:07 | 04:07:59 | 121507 | 140090
9 | 31:07:66 | 04:33:54 | 140091 | 160619
Track 01
Filename : /Users/Incubus/Music/Apokefale - Apokefale - 2008/01 Apokefale - alfa.m4a
Pre-gap length : 00:02:00
CRC32 hash (test run) : 49D28F67
CRC32 hash : 49D28F67
CRC32 hash (skip zero) : 67049268
AccurateRip signature : AC20E57E
->Accurately ripped! (confidence 1)
Statistics
Read error : 0
Skipped (treated as error) : 0
Edge jitter error (maybe fixed) : 0
Atom jitter error (maybe fixed) : 0
Drift error (maybe fixed) : 0
Dropped bytes error (maybe fixed) : 0
Duplicated bytes error (maybe fixed) : 0
Inconsistency in error sectors : 0
Track 02
Filename : /Users/Incubus/Music/Apokefale - Apokefale - 2008/02 Apokefale - Post Dictatorial Syndrome.m4a
Pre-gap length : 00:01:74
CRC32 hash (test run) : 1CB3FB71
CRC32 hash : 1CB3FB71
CRC32 hash (skip zero) : 4CF8506D
AccurateRip signature : 916982D8
->Accurately ripped! (confidence 1)
Statistics
Read error : 0
Skipped (treated as error) : 0
Edge jitter error (maybe fixed) : 0
Atom jitter error (maybe fixed) : 0
Drift error (maybe fixed) : 0
Dropped bytes error (maybe fixed) : 0
Duplicated bytes error (maybe fixed) : 0
Inconsistency in error sectors : 0
Track 03
Filename : /Users/Incubus/Music/Apokefale - Apokefale - 2008/03 Apokefale - Anaesthetized Morgueazm.m4a
Pre-gap length : 00:01:74
CRC32 hash (test run) : 758678AD
CRC32 hash : 758678AD
CRC32 hash (skip zero) : F09817BB
AccurateRip signature : 2E654AEB
->Accurately ripped! (confidence 1)
Statistics
Read error : 0
Skipped (treated as error) : 0
Edge jitter error (maybe fixed) : 0
Atom jitter error (maybe fixed) : 0
Drift error (maybe fixed) : 0
Dropped bytes error (maybe fixed) : 0
Duplicated bytes error (maybe fixed) : 0
Inconsistency in error sectors : 0
Track 04
Filename : /Users/Incubus/Music/Apokefale - Apokefale - 2008/04 Apokefale - K.C.O.D.S..m4a
Pre-gap length : 00:01:74
CRC32 hash (test run) : 409AA9AC
CRC32 hash : 409AA9AC
CRC32 hash (skip zero) : CDB9DDB0
AccurateRip signature : D441F8C9
->Accurately ripped! (confidence 1)
Statistics
Read error : 0
Skipped (treated as error) : 0
Edge jitter error (maybe fixed) : 0
Atom jitter error (maybe fixed) : 0
Drift error (maybe fixed) : 0
Dropped bytes error (maybe fixed) : 0
Duplicated bytes error (maybe fixed) : 0
Inconsistency in error sectors : 0
Track 05
Filename : /Users/Incubus/Music/Apokefale - Apokefale - 2008/05 Apokefale - Code? 6ick.6ex.6ix.m4a
Pre-gap length : 00:01:74
CRC32 hash (test run) : 61563E7A
CRC32 hash : 61563E7A
CRC32 hash (skip zero) : 4C6FF57F
AccurateRip signature : 586B59C9
->Accurately ripped! (confidence 1)
Statistics
Read error : 0
Skipped (treated as error) : 0
Edge jitter error (maybe fixed) : 0
Atom jitter error (maybe fixed) : 0
Drift error (maybe fixed) : 0
Dropped bytes error (maybe fixed) : 0
Duplicated bytes error (maybe fixed) : 0
Inconsistency in error sectors : 0
Track 06
Filename : /Users/Incubus/Music/Apokefale - Apokefale - 2008/06 Apokefale - Aequilibris.m4a
Pre-gap length : 00:01:74
CRC32 hash (test run) : 09996AB6
CRC32 hash : 09996AB6
CRC32 hash (skip zero) : 1A8E0514
AccurateRip signature : F05B226A
->Accurately ripped! (confidence 1)
Statistics
Read error : 0
Skipped (treated as error) : 0
Edge jitter error (maybe fixed) : 0
Atom jitter error (maybe fixed) : 0
Drift error (maybe fixed) : 0
Dropped bytes error (maybe fixed) : 0
Duplicated bytes error (maybe fixed) : 0
Inconsistency in error sectors : 0
Track 07
Filename : /Users/Incubus/Music/Apokefale - Apokefale - 2008/07 Apokefale - Forced Obsolescence.m4a
Pre-gap length : 00:01:74
CRC32 hash (test run) : 71163737
CRC32 hash : 71163737
CRC32 hash (skip zero) : EDA2E39C
AccurateRip signature : 2AC77BD3
->Accurately ripped! (confidence 1)
Statistics
Read error : 0
Skipped (treated as error) : 0
Edge jitter error (maybe fixed) : 0
Atom jitter error (maybe fixed) : 0
Drift error (maybe fixed) : 0
Dropped bytes error (maybe fixed) : 0
Duplicated bytes error (maybe fixed) : 0
Inconsistency in error sectors : 0
Track 08
Filename : /Users/Incubus/Music/Apokefale - Apokefale - 2008/08 Apokefale - Torrent Inside Me.m4a
Pre-gap length : 00:01:74
CRC32 hash (test run) : 63DEB6FC
CRC32 hash : 63DEB6FC
CRC32 hash (skip zero) : 733AD235
AccurateRip signature : AE546FAE
->Accurately ripped! (confidence 1)
Statistics
Read error : 0
Skipped (treated as error) : 0
Edge jitter error (maybe fixed) : 1
Atom jitter error (maybe fixed) : 1
Drift error (maybe fixed) : 0
Dropped bytes error (maybe fixed) : 0
Duplicated bytes error (maybe fixed) : 0
Inconsistency in error sectors : 0
Track 09
Filename : /Users/Incubus/Music/Apokefale - Apokefale - 2008/09 Apokefale - Raw.m4a
Pre-gap length : 00:01:74
CRC32 hash (test run) : 47D20FFE
CRC32 hash : 47D20FFE
CRC32 hash (skip zero) : 23789E7A
AccurateRip signature : 51CB94C8
->Accurately ripped! (confidence 1)
Statistics
Read error : 0
Skipped (treated as error) : 0
Edge jitter error (maybe fixed) : 0
Atom jitter error (maybe fixed) : 0
Drift error (maybe fixed) : 0
Dropped bytes error (maybe fixed) : 0
Duplicated bytes error (maybe fixed) : 0
Inconsistency in error sectors : 0
No errors occurred
End of status report

Apple Mac mini 2,53 Ghz, 4 Gb, 320 Gb, GeForce 9400M
[Profile]  [PM] 

VioLet

Longevity:
9 years 8 months
Posts:
73

И еще раз тебе спасибо!
[Profile]  [PM] 
Display posts from previous:    

The time now is: Today 01:58

All times are GMT + 4 Hours



You cannot post new topics in this forum
You cannot reply to topics in this forum
You cannot edit your posts in this forum
You cannot delete your posts in this forum
You cannot vote in polls in this forum
You cannot attach files in this forum
You cannot download files in this forum