Самые скачиваемые

5 C

5

 

iSmile ®

Bullet For My Valentine - Scream Aim Fire [Deluxe Edition] Жанр: Metalcore
Год выпуска: 2008
Официальный сайт: www.bulletformyvalentine.com
Record Label: Sony Music Ent (UK)
Формат: ALAC (tracks)
Продолжительность: 01:09:10
Источник: FLAC (tracks + .cue)
Тексты: Отсутствуют
Трэклист:
01.Scream Aim Fire
02.Eye Of The Storm
03.Hearts Burst Into Fire
04.Waking The Demon
05.Disappear
06.Deliver Us From Evil
07.Take It Out On Me (Feat. Benji Webbe)
08.Say Goodnight
09.End Of Days
10.Last To Know
11.Forever And Always
12.Road To Nowhere (Bonus Track)
13.Watching Us Die Tonight (Bonus Track)
14.One Good Reason Why (Bonus Track)
15.Ashes Of The Innocent (Bonus Track)

Сонограмма

Лог граббера

Exact Audio Copy V0.99 prebeta 5 from 4. May 2009
Отчёт EAC об извлечении, выполненном 1. июля 2009, 16:09
Bullet For My Valentine / Scream Aim Fire (Deluxe Издание)
Дисковод: TSSTcorpDVD-ROM SH-D162C Adapter: 2 ID: 1
Режим чтения : Достоверность
Использование точного потока : Да
Отключение кэша аудио : Да
Использование указателей C2 : Нет
Коррекция смещения при чтении : 6
Способность читать области Lead-in и Lead-out : Нет
Заполнение пропущенных сэмплов тишиной : Да
Удаление блоков с тишиной в начале и конце : Нет
При вычислениях CRC использовались нулевые сэмплы : Нет
Интерфейс : Встроенный Win32-интерфейс для Win NT/2000
Обработка зазоров : Добавлено к предыдущему треку
Выходной формат : Пользовательский кодировщик
Выбранный битрейт : 128 kBit/s
Качество : Высокий
Добавление ID3-тэга : Нет
Утилита сжатия : C:\Program Files\Exact Audio Copy\Flac\flac.exe
Дополнительные параметры : ?8 ?V ?T "ARTIST=%a" ?T "TITLE=%t" ?T "ALBUM=%g" ?T "DATE=%y" ?T "TRACKNUMBER=%n" ?T "GENRE=%m" ?T "COMMENT=EAC FLAC ?8" %s
TOC извлечённого CD
Трек | Старт | Длительность | Начальный сектор | Конечный сектор
---------------------------------------------------------------------
1 | 0:00.00 | 4:26.33 | 0 | 19982
2 | 4:26.33 | 4:02.69 | 19983 | 38201
3 | 8:29.27 | 4:57.71 | 38202 | 60547
4 | 13:27.23 | 4:07.52 | 60548 | 79124
5 | 17:35.00 | 4:05.12 | 79125 | 97511
6 | 21:40.12 | 5:58.21 | 97512 | 124382
7 | 27:38.33 | 5:52.10 | 124383 | 150792
8 | 33:30.43 | 4:43.31 | 150793 | 172048
9 | 38:13.74 | 4:18.30 | 172049 | 191428
10 | 42:32.29 | 3:17.19 | 191429 | 206222
11 | 45:49.48 | 6:47.37 | 206223 | 236784
12 | 52:37.10 | 4:19.39 | 236785 | 256248
13 | 56:56.49 | 3:53.42 | 256249 | 273765
14 | 60:50.16 | 4:04.62 | 273766 | 292127
15 | 64:55.03 | 4:15.00 | 292128 | 311252
16 | 71:42.03 | 6:38.39 | 322653 | 352541
Трек 1
Имя файла D:\Скачанное\Разное\Разное\Опять Разное\Торренты\Bullet For My Valentine\(2008) Scream Aim Fire (Deluxe Издание)\01 – Track01.wav
Длина предзазора 0:00:02.00
Пиковый уровень 97.7 %
Качество трека 100.0 %
CRC теста BEB662D3
CRC копии BEB662D3
Копирование... OK
Трек 2
Имя файла D:\Скачанное\Разное\Разное\Опять Разное\Торренты\Bullet For My Valentine\(2008) Scream Aim Fire (Deluxe Издание)\02 – Track02.wav
Пиковый уровень 97.7 %
Качество трека 100.0 %
CRC теста EC00FA4D
CRC копии EC00FA4D
Копирование... OK
Трек 3
Имя файла D:\Скачанное\Разное\Разное\Опять Разное\Торренты\Bullet For My Valentine\(2008) Scream Aim Fire (Deluxe Издание)\03 – Track03.wav
Пиковый уровень 97.7 %
Качество трека 100.0 %
CRC теста 80268458
CRC копии 80268458
Копирование... OK
Трек 4
Имя файла D:\Скачанное\Разное\Разное\Опять Разное\Торренты\Bullet For My Valentine\(2008) Scream Aim Fire (Deluxe Издание)\04 – Track04.wav
Длина предзазора 0:00:00.10
Пиковый уровень 100.0 %
Качество трека 99.9 %
CRC теста C9A6342E
CRC копии C9A6342E
Копирование... OK
Трек 5
Имя файла D:\Скачанное\Разное\Разное\Опять Разное\Торренты\Bullet For My Valentine\(2008) Scream Aim Fire (Deluxe Издание)\05 – Track05.wav
Длина предзазора 0:00:00.05
Пиковый уровень 97.7 %
Качество трека 100.0 %
CRC теста 4F458A3D
CRC копии 4F458A3D
Копирование... OK
Трек 6
Имя файла D:\Скачанное\Разное\Разное\Опять Разное\Торренты\Bullet For My Valentine\(2008) Scream Aim Fire (Deluxe Издание)\06 – Track06.wav
Длина предзазора 0:00:00.10
Пиковый уровень 97.7 %
Качество трека 99.9 %
CRC теста C9F0DBE1
CRC копии C9F0DBE1
Копирование... OK
Трек 7
Имя файла D:\Скачанное\Разное\Разное\Опять Разное\Торренты\Bullet For My Valentine\(2008) Scream Aim Fire (Deluxe Издание)\07 – Track07.wav
Длина предзазора 0:00:00.07
Пиковый уровень 97.7 %
Качество трека 100.0 %
CRC теста 0BEA885C
CRC копии 0BEA885C
Копирование... OK
Трек 8
Имя файла D:\Скачанное\Разное\Разное\Опять Разное\Торренты\Bullet For My Valentine\(2008) Scream Aim Fire (Deluxe Издание)\08 – Track08.wav
Пиковый уровень 97.7 %
Качество трека 100.0 %
CRC теста 61AF5E8B
CRC копии 61AF5E8B
Копирование... OK
Трек 9
Имя файла D:\Скачанное\Разное\Разное\Опять Разное\Торренты\Bullet For My Valentine\(2008) Scream Aim Fire (Deluxe Издание)\09 – Track09.wav
Длина предзазора 0:00:00.04
Пиковый уровень 97.7 %
Качество трека 100.0 %
CRC теста E9AFE224
CRC копии E9AFE224
Копирование... OK
Трек 10
Имя файла D:\Скачанное\Разное\Разное\Опять Разное\Торренты\Bullet For My Valentine\(2008) Scream Aim Fire (Deluxe Издание)\10 – Track10.wav
Пиковый уровень 97.7 %
Качество трека 99.9 %
CRC теста 592C9877
CRC копии 592C9877
Копирование... OK
Трек 11
Имя файла D:\Скачанное\Разное\Разное\Опять Разное\Торренты\Bullet For My Valentine\(2008) Scream Aim Fire (Deluxe Издание)\11 – Track11.wav
Длина предзазора 0:00:01.47
Пиковый уровень 97.7 %
Качество трека 100.0 %
CRC теста D49CB6A0
CRC копии D49CB6A0
Копирование... OK
Трек 12
Имя файла D:\Скачанное\Разное\Разное\Опять Разное\Торренты\Bullet For My Valentine\(2008) Scream Aim Fire (Deluxe Издание)\12 – Track12.wav
Длина предзазора 0:00:01.10
Пиковый уровень 99.9 %
Качество трека 100.0 %
CRC теста ACF3AEDC
CRC копии ACF3AEDC
Копирование... OK
Трек 13
Имя файла D:\Скачанное\Разное\Разное\Опять Разное\Торренты\Bullet For My Valentine\(2008) Scream Aim Fire (Deluxe Издание)\13 – Track13.wav
Длина предзазора 0:00:00.04
Пиковый уровень 99.9 %
Качество трека 100.0 %
CRC теста 4E387C44
CRC копии 4E387C44
Копирование... OK
Трек 14
Имя файла D:\Скачанное\Разное\Разное\Опять Разное\Торренты\Bullet For My Valentine\(2008) Scream Aim Fire (Deluxe Издание)\14 – Track14.wav
Длина предзазора 0:00:00.06
Пиковый уровень 99.9 %
Качество трека 100.0 %
CRC теста 35D69148
CRC копии 35D69148
Копирование... OK
Трек 15
Имя файла D:\Скачанное\Разное\Разное\Опять Разное\Торренты\Bullet For My Valentine\(2008) Scream Aim Fire (Deluxe Издание)\15 – Track15.wav
Длина предзазора 0:00:02.25
Пиковый уровень 100.0 %
Качество трека 100.0 %
CRC теста 4B584C62
CRC копии 4B584C62
Копирование... OK
Ошибок не произошло
Конец отчёта
 
Display posts from previous:    

The time now is: Today 04:09

All times are GMT + 4 Hours



You cannot post new topics in this forum
You cannot reply to topics in this forum
You cannot edit your posts in this forum
You cannot delete your posts in this forum
You cannot vote in polls in this forum
You cannot attach files in this forum
You cannot download files in this forum