Новые торренты

Самые скачиваемые

5 C

5

 

Red_Bandit ®

Longevity:
10 years
Posts:
172

Placebo - Battle For The Sun (Japan Edit)
Жанр: Alternative, Rock
Издатель: Japan Solitary Man Records
Официальный сайт: http://www.placeboworld.co.uk/
Год выпуска: 2009
Источник: FLAC image+.cue
Продолжительность: 00:56:17
Тексты: отсутствуют
Трэклист:
-
01. Kitty Litter
02. Ashtray Heart
03. Battle For The Sun
04. For What It's Worth
05. Devil In The Details
06. Bright Lights
07. Speak In Tongues
08. The Never-Ending Why
09. Julien
10. Happy You're Gone
11. Breathe Underwater
12. Come Undone
13. Kings Of Medicine
14. In A Funk
-Тех-данные:

Сонограмма на трек - 08- The Never-Ending Why

EAC extraction logfile from 25. October 2009

Exact Audio Copy V0.99 prebeta 5 from 4. May 2009
EAC extraction logfile from 25. October 2009, 0:49
Placebo / Battle For The Sun
Used drive : ASUS DRW-1608P Adapter: 2 ID: 0
Read mode : Secure
Utilize accurate stream : Yes
Defeat audio cache : Yes
Make use of C2 pointers : No
Read offset correction : 48
Overread into Lead-In and Lead-Out : No
Fill up missing offset samples with silence : Yes
Delete leading and trailing silent blocks : No
Null samples used in CRC calculations : Yes
Used interface : Installed external ASPI interface
Used output format : User Defined Encoder
Selected bitrate : 1024 kBit/s
Quality : High
Add ID3 tag : No
Command line compressor : C:\Program Files (x86)\Exact Audio Copy\Flac\flac.exe
Additional command line options : -5 -V -T "ARTIST=%a" -T "TITLE=%t" -T "ALBUM=%g" -T "DATE=%y" -T "TRACKNUMBER=%n" -T "GENRE=%m" -T "COMMENT=EAC FLAC -5" %s
TOC of the extracted CD
Track | Start | Length | Start sector | End sector
---------------------------------------------------------
1 | 0:00.00 | 3:47.55 | 0 | 17079
2 | 3:47.55 | 3:32.11 | 17080 | 32990
3 | 7:19.66 | 5:33.00 | 32991 | 57965
4 | 12:52.66 | 2:47.28 | 57966 | 70518
5 | 15:40.19 | 4:28.51 | 70519 | 90669
6 | 20:08.70 | 3:23.59 | 90670 | 105953
7 | 23:32.54 | 4:06.02 | 105954 | 124405
8 | 27:38.56 | 3:23.44 | 124406 | 139674
9 | 31:02.25 | 4:43.34 | 139675 | 160933
10 | 35:45.59 | 3:50.71 | 160934 | 178254
11 | 39:36.55 | 3:44.02 | 178255 | 195056
12 | 43:20.57 | 4:36.74 | 195057 | 215830
13 | 47:57.56 | 4:15.70 | 215831 | 235025
14 | 52:13.51 | 4:10.02 | 235026 | 253777
Range status and errors
Selected range
Filename F:\Placebo - 2009 (Japan)\Placebo - Battle For The Sun.wav
Peak level 99.9 %
Range quality 99.9 %
Test CRC 50C18138
Copy CRC 50C18138
Copy OK
No errors occurred
AccurateRip summary
Track 1 not present in database
Track 2 not present in database
Track 3 not present in database
Track 4 not present in database
Track 5 not present in database
Track 6 not present in database
Track 7 not present in database
Track 8 not present in database
Track 9 not present in database
Track 10 not present in database
Track 11 not present in database
Track 12 not present in database
Track 13 not present in database
Track 14 not present in database
None of the tracks are present in the AccurateRip database
End of status report
Доп-информация:

Сканы в раздаче


Stop complaining. I know what's best for you. © Steve Jobs
[Profile]  [PM] 

DeFNick

Longevity:
10 years
Posts:
166

а альбома Meds 2006 года нету?? я бы скачал
Asus A8N-E nForce 4 Ultra
AMD Athlon 64 3200+
Asus EN 7600 GS Silent
4 x 512 Mb ОЗУ
Samsung 160 Gb Sata - пустой
Seagate Baracuda 500Gb Sata - Win7 + Data
LG DVD GH22NP20 IDE
[Profile]  [PM] 

majinKenshin

Longevity:
9 years 7 months
Posts:
36

Спасибо! Люблю эту группу
everyone dreams about the Hayabusa since birth)
MacBook Pro 2012
[Profile]  [PM] 

CHASSIT

Longevity:
9 years 9 months
Posts:
23

Cooooooooooool
In Mac We Trust
MacBook Pro 13" 2.66Ггц 4Гб 320M
iPad 16, iPod nano 2 gen
[Profile]  [PM] 
Display posts from previous:    

The time now is: Today 16:13

All times are GMT + 4 Hours



You cannot post new topics in this forum
You cannot reply to topics in this forum
You cannot edit your posts in this forum
You cannot delete your posts in this forum
You cannot vote in polls in this forum
You cannot attach files in this forum
You cannot download files in this forum