Новые торренты

Самые скачиваемые

5 C

5

 

bugagazavr ®

Longevity:
10 years
Posts:
96

Lady GaGa - The Fame Monster (Japanese Deluxe Edition)
Страна: USA
Жанр: Pop
Год выпуска: 2009
Сайт: www.ladygaga.com
Издательство: Interscope
Источник: APE image
Продолжительность: 01:34:47
Тексты: Нету
-Трэклисты:

CD1 - The Monster Side

1. - Bad Romance
2. - Alejandro
3. - Monster
4. - So Happy I Could Die
5. - Speechless
6. - Dancing In The Dark
7. - Telephone
8. - Teeth

CD2 - The Fame Side

1. - Just Dance
2. - LoveGame
3. - Paparazzi
4. - Poker Face
5. - I Like It Rough
6. - Eh, Eh (Nothing Else I Can Say)
7. - Starstruck
8. - Beautiful, Dirty, Rich
9. - The Fame
10. - Money Honey
11. - Boys Boys Boys
12. - Paper Gangsta
13. - Brown Eyes
14. - Summerboy
15. - Disco Heaven (Bonus Track)
16. - Again Again (Bonus Track)
17. - Retro, Dance, Freak (Bonus Track)

-Технические данные:

Сонограмма CD1 - The Monster Side

Сонограмма CD2 - The Fame Side

EAC log CD1

Exact Audio Copy V0.99 prebeta 5 from 4. May 2009
Отчёт EAC об извлечении, выполненном 20. ноября 2009, 18:14
Lady GaGa / The Fame Monster (Japanese Deluxe Edition) - CD 1
Дисковод: LITE-ON BD O DH4O1S Adapter: 3 ID: 1
Режим чтения : Достоверность
Использование точного потока : Да
Отключение кэша аудио : Да
Использование указателей C2 : Нет
Коррекция смещения при чтении : 6
Способность читать области Lead-in и Lead-out : Нет
Заполнение пропущенных сэмплов тишиной : Да
Удаление блоков с тишиной в начале и конце : Нет
При вычислениях CRC использовались нулевые сэмплы : Да
Интерфейс : Встроенный Win32-интерфейс для Win NT/2000
Выходной формат : Внутренние WAV-операции
Формат сэмплов : 44.100 Гц; 16 бит; стерео
TOC извлечённого CD
Трек | Старт | Длительность | Начальный сектор | Конечный сектор
---------------------------------------------------------------------
1 | 0:00.00 | 4:54.35 | 0 | 22084
2 | 4:54.35 | 4:34.16 | 22085 | 42650
3 | 9:28.51 | 4:09.68 | 42651 | 61393
4 | 13:38.44 | 4:30.56 | 61394 | 81699
5 | 18:09.25 | 4:49.20 | 81700 | 103394
6 | 22:58.45 | 3:40.70 | 103395 | 119964
7 | 26:39.40 | 3:55.02 | 119965 | 137591
8 | 30:34.42 | 3:40.52 | 137592 | 154143
Характеристики диапазона извлечения и сообщения об ошибках
Выбранный диапазон
Имя файла C:\Users\espoir\Desktop\Lady GaGa - The Fame Monster (Japanese Edition)\CD 1\Lady GaGa - The Fame Monster (Japanese Deluxe Edition) - CD 1.wav
Пиковый уровень 99.9 %
Качество диапазона 100.0 %
CRC теста 13676EAD
CRC копии 13676EAD
Копирование... OK
Ошибок не произошло
AccurateRip: сводка
Трек 1 нет в базе данных
Трек 2 нет в базе данных
Трек 3 нет в базе данных
Трек 4 нет в базе данных
Трек 5 нет в базе данных
Трек 6 нет в базе данных
Трек 7 нет в базе данных
Трек 8 нет в базе данных
Ни одного трека нет в базе AccurateRip
Конец отчёта

EAC log CD2

Exact Audio Copy V0.99 prebeta 5 from 4. May 2009
Отчёт EAC об извлечении, выполненном 20. ноября 2009, 18:34
Lady GaGa / The Fame Monster (Japanese Deluxe Edition) - CD 2
Дисковод: LITE-ON BD O DH4O1S Adapter: 3 ID: 1
Режим чтения : Достоверность
Использование точного потока : Да
Отключение кэша аудио : Да
Использование указателей C2 : Нет
Коррекция смещения при чтении : 6
Способность читать области Lead-in и Lead-out : Нет
Заполнение пропущенных сэмплов тишиной : Да
Удаление блоков с тишиной в начале и конце : Нет
При вычислениях CRC использовались нулевые сэмплы : Да
Интерфейс : Встроенный Win32-интерфейс для Win NT/2000
Выходной формат : Внутренние WAV-операции
Формат сэмплов : 44.100 Гц; 16 бит; стерео
TOC извлечённого CD
Трек | Старт | Длительность | Начальный сектор | Конечный сектор
---------------------------------------------------------------------
1 | 0:00.00 | 4:01.70 | 0 | 18144
2 | 4:01.70 | 3:38.37 | 18145 | 34531
3 | 7:40.32 | 3:29.34 | 34532 | 50240
4 | 11:09.66 | 3:57.22 | 50241 | 68037
5 | 15:07.13 | 3:23.74 | 68038 | 83336
6 | 18:31.12 | 2:56.42 | 83337 | 96578
7 | 21:27.54 | 3:36.47 | 96579 | 112825
8 | 25:04.26 | 2:53.29 | 112826 | 125829
9 | 27:57.55 | 3:42.47 | 125830 | 142526
10 | 31:40.27 | 2:50.56 | 142527 | 155332
11 | 34:31.08 | 3:20.45 | 155333 | 170377
12 | 37:51.53 | 4:23.29 | 170378 | 190131
13 | 42:15.07 | 4:03.66 | 190132 | 208422
14 | 46:18.73 | 4:14.72 | 208423 | 227544
15 | 50:33.70 | 3:41.51 | 227545 | 244170
16 | 54:15.46 | 3:04.70 | 244171 | 258040
17 | 57:20.41 | 3:22.67 | 258041 | 273257
Характеристики диапазона извлечения и сообщения об ошибках
Выбранный диапазон
Имя файла C:\Users\espoir\Desktop\Lady GaGa - The Fame Monster (Japanese Edition)\CD 2\Lady GaGa - The Fame Monster (Japanese Deluxe Edition) - CD 2.wav
Пиковый уровень 99.9 %
Качество диапазона 100.0 %
CRC теста 7A088A1C
CRC копии 7A088A1C
Копирование... OK
Ошибок не произошло
AccurateRip: сводка
Трек 1 точное извлечение (доверие 2) [E2B3EF9E]
Трек 2 точное извлечение (доверие 2) [30FE12AC]
Трек 3 точное извлечение (доверие 2) [C8E9F388]
Трек 4 точное извлечение (доверие 2) [5E64E87A]
Трек 5 точное извлечение (доверие 2) [F2A1ACEB]
Трек 6 точное извлечение (доверие 2) [FEE6D6BD]
Трек 7 точное извлечение (доверие 2) [990A51BB]
Трек 8 точное извлечение (доверие 2) [1E7510F3]
Трек 9 точное извлечение (доверие 2) [8D300EA5]
Трек 10 точное извлечение (доверие 2) [977BF5CA]
Трек 11 точное извлечение (доверие 2) [6A31B0E9]
Трек 12 точное извлечение (доверие 2) [CB12B1FB]
Трек 13 точное извлечение (доверие 2) [BB1DFE0A]
Трек 14 точное извлечение (доверие 2) [BD542E5D]
Трек 15 точное извлечение (доверие 2) [A688C8B8]
Трек 16 точное извлечение (доверие 2) [1805435C]
Трек 17 точное извлечение (доверие 2) [3F0A2CD9]
Все треки извлечены точно
Конец отчёта
Дополнительная информация:Внимание в раздаче есть 2 бонусных трека, эти оба трека вместе с данным изданием идут с заниженным битрейтом

Again Again (Bonus Track)

Retro, Dance, Freak (Bonus Track)

[Profile]  [PM] 

PanteRa

Longevity:
9 years 1 month
Posts:
1

Первая закачка. Первое - Спасибо!!!
[Profile]  [PM] 

bugagazavr ®

Longevity:
10 years
Posts:
96

Первая закачка. Первое - Спасибо!!!
Рад стараться
[Profile]  [PM] 

evol

Longevity:
9 years 2 months
Posts:
1

скорости дайте!
[Profile]  [PM] 
Display posts from previous:    

The time now is: Today 00:36

All times are GMT + 4 Hours



You cannot post new topics in this forum
You cannot reply to topics in this forum
You cannot edit your posts in this forum
You cannot delete your posts in this forum
You cannot vote in polls in this forum
You cannot attach files in this forum
You cannot download files in this forum