Новые торренты

Самые скачиваемые

5 C

5

 

bob911 ®

Longevity:
10 years
Posts:
27

Hoobastank - Is This the Day? (Acoustic Best) (2010)
Жанр: Alternative Rock
Год выпуска: 2010
Источник: Flac tracks
Издатель: Universal Music Kr
Формат: ALAC (tracks)
Продолжительность: 48:31 min
Тексты: Отсутствуют
Официальный сайт: www.hoobastank.com
Трэклист:
01. Just One
02. Crawling in the Dark
03. I Don’t Think I Love You (Transformers Soundtrack)
04. Is This The Day? (New Track)
05. Inside Of You
06. Running Away
07. The Reason
08. My Turn
09. What I Meant To Say
10. If I Were You
11. Tears of Yesterday
12. Pieces
13. Same Direction

Технические данные:

Лог граббера

:
Exact Audio Copy V0.99 prebeta 5 from 4. May 2009
EAC extraction logfile from 12. October 2010, 12:52
Hoobastank / Is This The Day?
Used drive : HL-DT-STDVD+-RW GH30N Adapter: 0 ID: 1
Read mode : Secure
Utilize accurate stream : Yes
Defeat audio cache : Yes
Make use of C2 pointers : No
Read offset correction : 102
Overread into Lead-In and Lead-Out : Yes
Fill up missing offset samples with silence : Yes
Delete leading and trailing silent blocks : No
Null samples used in CRC calculations : Yes
Used interface : Native Win32 interface for Win NT & 2000
Gap handling : Appended to previous track
Used output format : User Defined Encoder
Selected bitrate : 320 kBit/s
Quality : High
Add ID3 tag : No
Command line compressor : C:\Program Files (x86)\Exact Audio Copy\Flac\flac.exe
Additional command line options : -V -8 -T "artist=%a" -T "title=%t" -T "album=%g" -T "date=%y" -T "tracknumber=%n" -T "genre=%m" %s
TOC of the extracted CD
Track | Start | Length | Start sector | End sector
---------------------------------------------------------
1 | 0:00.00 | 3:57.16 | 0 | 17790
2 | 3:57.16 | 3:08.35 | 17791 | 31925
3 | 7:05.51 | 3:52.57 | 31926 | 49382
4 | 10:58.33 | 4:32.20 | 49383 | 69802
5 | 15:30.53 | 3:01.69 | 69803 | 83446
6 | 18:32.47 | 3:37.65 | 83447 | 99786
7 | 22:10.37 | 3:59.50 | 99787 | 117761
8 | 26:10.12 | 3:19.20 | 117762 | 132706
9 | 29:29.32 | 3:27.68 | 132707 | 148299
10 | 32:57.25 | 4:38.21 | 148300 | 169170
11 | 37:35.46 | 3:47.07 | 169171 | 186202
12 | 41:22.53 | 3:39.27 | 186203 | 202654
13 | 45:02.05 | 3:28.37 | 202655 | 218291
Track 1
Filename C:\EACrips\Hoobastank - Is This The Day (2010) - FLAC\01 - Just One.wav
Pre-gap length 0:00:02.00
Peak level 98.8 %
Track quality 100.0 %
Test CRC 02C4CB23
Copy CRC 02C4CB23
Track not present in AccurateRip database
Copy OK
Track 2
Filename C:\EACrips\Hoobastank - Is This The Day (2010) - FLAC\02 - Crawling In The Dark.wav
Peak level 98.8 %
Track quality 100.0 %
Test CRC 7E4988F4
Copy CRC 7E4988F4
Track not present in AccurateRip database
Copy OK
Track 3
Filename C:\EACrips\Hoobastank - Is This The Day (2010) - FLAC\03 - I Don't Think I Love You.wav
Peak level 98.8 %
Track quality 99.9 %
Test CRC E2D9B424
Copy CRC E2D9B424
Track not present in AccurateRip database
Copy OK
Track 4
Filename C:\EACrips\Hoobastank - Is This The Day (2010) - FLAC\04 - Is This The Day.wav
Peak level 90.9 %
Track quality 100.0 %
Test CRC 50A7728C
Copy CRC 50A7728C
Track not present in AccurateRip database
Copy OK
Track 5
Filename C:\EACrips\Hoobastank - Is This The Day (2010) - FLAC\05 - Inside Of You.wav
Peak level 98.8 %
Track quality 100.0 %
Test CRC D4A8B1C5
Copy CRC D4A8B1C5
Track not present in AccurateRip database
Copy OK
Track 6
Filename C:\EACrips\Hoobastank - Is This The Day (2010) - FLAC\06 - Running Away.wav
Peak level 98.8 %
Track quality 100.0 %
Test CRC 9FAE2BC8
Copy CRC 9FAE2BC8
Track not present in AccurateRip database
Copy OK
Track 7
Filename C:\EACrips\Hoobastank - Is This The Day (2010) - FLAC\07 - The Reason.wav
Peak level 98.8 %
Track quality 100.0 %
Test CRC E535A221
Copy CRC E535A221
Track not present in AccurateRip database
Copy OK
Track 8
Filename C:\EACrips\Hoobastank - Is This The Day (2010) - FLAC\08 - My Turn.wav
Peak level 98.8 %
Track quality 100.0 %
Test CRC 7A303C41
Copy CRC 7A303C41
Track not present in AccurateRip database
Copy OK
Track 9
Filename C:\EACrips\Hoobastank - Is This The Day (2010) - FLAC\09 - What I Meant To Say.wav
Peak level 98.8 %
Track quality 100.0 %
Test CRC ED77DB69
Copy CRC ED77DB69
Track not present in AccurateRip database
Copy OK
Track 10
Filename C:\EACrips\Hoobastank - Is This The Day (2010) - FLAC\10 - If I Were You.wav
Peak level 98.8 %
Track quality 99.9 %
Test CRC 051B3021
Copy CRC 051B3021
Track not present in AccurateRip database
Copy OK
Track 11
Filename C:\EACrips\Hoobastank - Is This The Day (2010) - FLAC\11 - Tears Of Yesterday.wav
Peak level 100.0 %
Track quality 100.0 %
Test CRC A5FBC71E
Copy CRC A5FBC71E
Track not present in AccurateRip database
Copy OK
Track 12
Filename C:\EACrips\Hoobastank - Is This The Day (2010) - FLAC\12 - Pieces.wav
Peak level 98.8 %
Track quality 100.0 %
Test CRC B0FF8289
Copy CRC B0FF8289
Track not present in AccurateRip database
Copy OK
Track 13
Filename C:\EACrips\Hoobastank - Is This The Day (2010) - FLAC\13 - Same Direction.wav
Pre-gap length 0:00:00.64
Peak level 98.8 %
Track quality 100.0 %
Test CRC 352255BA
Copy CRC 352255BA
Track not present in AccurateRip database
Copy OK
None of the tracks are present in the AccurateRip database
No errors occurred
End of status report

Сонограмма

[Profile]  [PM] 
Display posts from previous:    

The time now is: Today 01:09

All times are GMT + 4 Hours



You cannot post new topics in this forum
You cannot reply to topics in this forum
You cannot edit your posts in this forum
You cannot delete your posts in this forum
You cannot vote in polls in this forum
You cannot attach files in this forum
You cannot download files in this forum