Новые торренты

Самые скачиваемые

5 C

5

 

spez61 ®

Longevity:
10 years
Posts:
43

A State of Trance: Yearmix 2010 - Mixed by Armin van Buuren
Жанр: Trance
Год выпуска: 2010
Формат: ALAC (tracks)
Продолжительность: 01:00:27+01:00:12
Тексты: Отсутствуют

Трек лист

CD1:
01. Intro - The Ten Commandments [01:06]
02. D-Mad - She Gave Happiness (Arty Remix) [01:06]
03. Shogun feat. Emma Lock - Imprisoned [01:58]
04. Armin van Buuren feat. Ana Criado - Down To Love [01:13]
05. Matt Darey presents Urban Astronauts feat. Kristy Thirsk - Black Flowers (Josh Gabriel Remix) [01:28]
06. Susana feat. Omnia & The Blizzard - Closer [01:58]
07. Luigi Lusini - Who We Are [01:28]
08. Leon Bolier & Marcus Schossow - 2099 [00:43]
09. Max Graham feat. Ana Criado - Nothing Else Matters [01:14]
10. Mat Zo - Near The End [00:55]
11. Velvetine - Safe [Wherever You Are] (Rank 1 Remix) [00:59]
12. Yuri Kane - Right Back [01:21]
13. Armin van Buuren vs Sophie Ellis-Bextor - Not Giving Up On Love [01:13]
14. Rank 1 vs Jochen Miller - The Great Escape [00:49]
15. Arnej - They Need Us (Club Edit) [01:14]
16. Nic Chagall, Rank 1 & Wippenberg - 100 [00:59]
17. Orjan Nilsen - Lovers Lane [01:13]
18. Yuri Kane feat. Melissa Loretta - Daylight [01:06]
19. tyDi feat. Audrey Gallagher - Calling [01:35]
20. Tim Berg - Bromance (Avicii's Arena Mix) [01:13]
21. tyDi feat. Tania Zygar - Vanilla [00:59]
22. Filo & Peri feat. Audrey Gallagher - This Night (Max Graham Remix) [00:59]
23. Arty - Hope [01:13]
24. Sander van Doorn pres. Purple Haze - Hymn 2.0 [00:59]
25. Orjan Nilsen - So Long Radio [01:28]
26. Swedish House Mafia - One [01:58]
27. Swedish House Mafia - Miami 2 Ibiza (Instrumental) [00:44]
28. Ali Wilson - Pandora [00:59]
29. Susana & Josh Gabriel - Frozen (Nic Chagall Remix) [01:58]
30. Aruna with Mark Eteson - Let Go (Nic Chagall Remix) [01:21]
31. Mango - Good Morning Track (Sunn Jellie Remix) [01:13]
32. Super8 & Tab - Black Is The New Yellow [01:28]
33. Roger Shah presents Sunlounger feat. Zara Taylor - Found (Club Mix) [02:27]
34. Ron Hagen & Al Exander - Last Minute [00:58]
35. Armin van Buuren feat. Nadia Ali - Feels So Good (Club Mix) [01:29]
36. First State feat. Relyk - Cross The Line (Club Mix) [01:58]
37. Reverse - Absolute Reality (Arty Remix) [00:59]
38. Lange feat. Emma Hewitt - Live Forever (Mat Zo Remix) [01:42]
39. Bart Claessen - Hartseer [01:13]
40. Stoneface & Terminal - Don't Give a Fuck [01:57]
41. Arnej - The Strings That Bind Us [00:29]
42. Dido - Everything To Lose (Armin Van Buuren Remix) [02:25]
43. Gaia - Aisha [02:10]
44. Armin van Buuren - Orbion [00:58]
45. Who.Is - We.Are [01:11]
CD2 :
46. Above & Beyond vs Kyau & Albert - Anphonic [01:27]
47. Oceanlab feat. Gareth Emery - On A Good Day (Metropolis) [02:10]
48. Armin van Buuren feat. Christian Burns - This Light Between Us (Armin van Buuren's Great Strings Mix) [01:13]
49. 4 Strings feat. Ellie Lawson - Safe From Harm [00:58]
50. Faithless - Not Going Home (Armin van Buuren Remix) [01:26]
51. Andy Moor feat. Carrie Skipper - She Moves [01:57]
52. Leon Bolier feat. Fisher - By Your Side (I'll Be There) [01:27]
53. Alexander Popov - Revolution In You (Main Mix) [01:41]
54. Wezz Devall - Free My Willy [00:29]
55. Armin van Buuren - Mirage [01:27]
56. DNS Project feat. Johanna - Mindful (Ronski Speed Mix) [01:41]
57. Gareth Emery feat. Lucy Saunders - Sanctuary (Club Mix) [01:45]
58. Markus Schulz - Rain [01:26]
59. Jochen Miller - Humanoid [00:43]
60. Markus Schulz feat. Justine Suissa - Perception (Super8 & Tab Remix) [01:54]
61. Markus Schulz feat. Jennifer Rene - Not The Same [00:43]
62. Gareth Emery - Citadel [00:28]
63. Marcel Woods - Tomorrow [01:33]
64. Faithless - Tweak Your Nipple (Tiesto Remix) [01:11]
65. Skytech - Comet [00:42]
66. W&W - Alpha [00:56]
67. Shogun feat. Emma Lock - Save Me (Ilya Soloviev Remix) [02:06]
68. Vast Vision feat. Fisher - Behind Your Smile (Suncatcher Remix) [01:39]
69. Dash Berlin - Never Cry Again (Jorn van Deynhoven Remix) [01:10]
70. Solarstone - Touchstone (Aly & Fila Remix) [01:45]
71. Simon Patterson - Miss You [00:42]
72. Armin van Buuren - Coming Home [02:25]
73. Armin van Buuren feat. BT - These Silent Hearts [00:57]
74. Aly & Fila feat. Josie - Listening (Philippe El Sisi Remix) [01:24]
75. Arctic Moon - True Romance [01:10]
76. Andy Blueman - Florescence (Epic Mix) [01:24]
77. Daniel Kandi pres. Timmus - Symphonica [02:02]
78. Armin van Buuren - Full Focus [01:03]
79. DJ's United - Remember Love [01:10]
80. Nitrous Oxide feat. Aneym - Far Away (Club Mix) [01:51]
81. Max Graham feat. Neev Kennedy - Sun In The Winter (Alex M.O.R.P.H. Remix) [01:39]
82. Giuseppe Ottaviani feat. Faith - Angel (Club Mix) [01:24]
83. W&W - D.N.A. [00:56]
84. Sebastian Brandt - 450 [01:38]
85. Dash Berlin - Till The Sky Falls Down (Arctic Moon Remix) [01:24]
86. Marc Simz - Forbidden City [02:19]
87. Jon O'Bir feat. Fisher - Found A Way (Joint Operations Centre Remix) [01:52]
88. Outro - The Ascend [00:40]

Лог граббера

Exact Audio Copy V0.99 prebeta 5 from 4. May 2009
EAC extraction logfile from 18. December 2010, 23:10
VA / A State Of Trance Yearmix 2010 Mixed By Armin Van Buuren CD2
Used drive : PIONEER DVD-RW DVRTD08RS Adapter: 1 ID: 0
Read mode : Secure
Utilize accurate stream : Yes
Defeat audio cache : Yes
Make use of C2 pointers : No
Read offset correction : 48
Overread into Lead-In and Lead-Out : No
Fill up missing offset samples with silence : Yes
Delete leading and trailing silent blocks : No
Null samples used in CRC calculations : Yes
Used interface : Native Win32 interface for Win NT & 2000
Used output format : Internal WAV Routines
Sample format : 44.100 Hz; 16 Bit; Stereo
TOC of the extracted CD
Track | Start | Length | Start sector | End sector
---------------------------------------------------------
1 | 0:00.00 | 1:27.68 | 0 | 6592
2 | 1:27.68 | 2:10.33 | 6593 | 16375
3 | 3:38.26 | 1:13.14 | 16376 | 21864
4 | 4:51.40 | 0:58.13 | 21865 | 26227
5 | 5:49.53 | 1:26.10 | 26228 | 32687
6 | 7:15.63 | 1:57.39 | 32688 | 41501
7 | 9:13.27 | 1:27.20 | 41502 | 48046
8 | 10:40.47 | 1:41.61 | 48047 | 55682
9 | 12:22.33 | 0:29.07 | 55683 | 57864
10 | 12:51.40 | 1:27.20 | 57865 | 64409
11 | 14:18.60 | 1:41.61 | 64410 | 72045
12 | 16:00.46 | 1:45.34 | 72046 | 79954
13 | 17:46.05 | 1:26.47 | 79955 | 86451
14 | 19:12.52 | 0:43.23 | 86452 | 89699
15 | 19:56.00 | 1:54.46 | 89700 | 98295
16 | 21:50.46 | 0:42.74 | 98296 | 101519
17 | 22:33.45 | 0:28.49 | 101520 | 103668
18 | 23:02.19 | 1:33.10 | 103669 | 110653
19 | 24:35.29 | 1:11.09 | 110654 | 115987
20 | 25:46.38 | 0:42.50 | 115988 | 119187
21 | 26:29.13 | 0:56.66 | 119188 | 123453
22 | 27:26.04 | 2:06.12 | 123454 | 132915
23 | 29:32.16 | 1:39.54 | 132916 | 140394
24 | 31:11.70 | 1:10.44 | 140395 | 145688
25 | 32:22.39 | 1:45.08 | 145689 | 153571
26 | 34:07.47 | 0:42.03 | 153572 | 156724
27 | 34:49.50 | 2:25.63 | 156725 | 167662
28 | 37:15.38 | 0:57.28 | 167663 | 171965
29 | 38:12.66 | 1:24.06 | 171966 | 178271
30 | 39:36.72 | 1:10.06 | 178272 | 183527
31 | 40:47.03 | 1:24.06 | 183528 | 189833
32 | 42:11.09 | 2:02.47 | 189834 | 199030
33 | 44:13.56 | 1:03.04 | 199031 | 203759
34 | 45:16.60 | 1:10.06 | 203760 | 209015
35 | 46:26.66 | 1:51.17 | 209016 | 217357
36 | 48:18.08 | 1:38.74 | 217358 | 224781
37 | 49:57.07 | 1:24.07 | 224782 | 231088
38 | 51:21.14 | 0:56.04 | 231089 | 235292
39 | 52:17.18 | 1:38.07 | 235293 | 242649
40 | 53:55.25 | 1:24.07 | 242650 | 248956
41 | 55:19.32 | 2:19.52 | 248957 | 259433
42 | 57:39.09 | 1:52.39 | 259434 | 267872
43 | 59:31.48 | 0:40.55 | 267873 | 270927
Range status and errors
Selected range
Filename E:\VA - A State Of Trance Yearmix 2010 Mixed By Armin Van Buuren CD2.wav
Peak level 96.6 %
Range quality 99.9 %
Test CRC BE65C864
Copy CRC BE65C864
Copy OK
No errors occurred
AccurateRip summary
Track 1 not present in database
Track 2 not present in database
Track 3 not present in database
Track 4 not present in database
Track 5 not present in database
Track 6 not present in database
Track 7 not present in database
Track 8 not present in database
Track 9 not present in database
Track 10 not present in database
Track 11 not present in database
Track 12 not present in database
Track 13 not present in database
Track 14 not present in database
Track 15 not present in database
Track 16 not present in database
Track 17 not present in database
Track 18 not present in database
Track 19 not present in database
Track 20 not present in database
Track 21 not present in database
Track 22 not present in database
Track 23 not present in database
Track 24 not present in database
Track 25 not present in database
Track 26 not present in database
Track 27 not present in database
Track 28 not present in database
Track 29 not present in database
Track 30 not present in database
Track 31 not present in database
Track 32 not present in database
Track 33 not present in database
Track 34 not present in database
Track 35 not present in database
Track 36 not present in database
Track 37 not present in database
Track 38 not present in database
Track 39 not present in database
Track 40 not present in database
Track 41 not present in database
Track 42 not present in database
Track 43 not present in database
None of the tracks are present in the AccurateRip database
End of status report
http://images.apple.com/macosx/whats-new/images/nav_icon_overview.png
MAC OS 10.8.3 (M.lion)
mather GA-945-GCMX-S2,
HDD sigate 320 sata,
dvd-rom atapi sata,
nvideo gf 220 Palit 512mb,
mouse+keyb. usb,
DSDT.
Asus Pee 1201PN (netbook)+Mac OS 10.6.8 v.1.1(10.6.9)
All work!
[Profile]  [PM] 
Display posts from previous:    

The time now is: Today 12:22

All times are GMT + 4 Hours



You cannot post new topics in this forum
You cannot reply to topics in this forum
You cannot edit your posts in this forum
You cannot delete your posts in this forum
You cannot vote in polls in this forum
You cannot attach files in this forum
You cannot download files in this forum