Новые торренты

Самые скачиваемые

5 C

5

 

bugagazavr ®

Longevity:
11 years
Posts:
96

Pendulum - Дискография
Страна: Австралия, Великобритания
Жанр: Drum'n'Bass
Год выпуска: 2007-2010
Сайт: pendulum.com
Источник: WAV track, FLAC track, WAV pack
Издательство: Earstorm, Warner Music, Atlantic Records
Продолжительность: 04:38:32
Тексты: в In Silico и Hold Your Colour
-Трэклисты:

Hold Your Colour

01. - Prelude
02. - Slam
03. - Plastic World
04. - Fasten Your Seatbelt
05. - Through The Loop
06. - Sounds Of Life
07. - Girl In The Fire
08. - Tarantula
09. - Out Here
10. - Hold Your Colour
11. - The Terminal
12. - Streamline
13. - Blood Sugar
14. - Axle Grinder

In Silico

01. - Showdown
02. - Different
03. - Propane Nightmares
04. - Visions
05. - Midnight Runner
06. - The Other Side
07. - Mutiny
08. - 9,000 Miles
09. - Granite
10. - The Tempest

Live at Brixton Academy

01. - Intro
02. - Showdown
03. - Fasten Your Seatbelt
04. - Another Planet
05. - Voodoo People (Pendulum Remix)
06. - Propane Nightmare
07. - Blood Sugar
08. - The Other Side
09. - Different
10. - Master Of Puppets
11. - Slam
12. - Hold Your Colour
13. - Countdown
14. - Tarantula
15. - Granite
16. - The Tempest

Immersion

01. - Genesis
02. - Salt In The Wounds
03. - Watercolour
04. - Set Me On Fire
05. - Crush
06. - Under The Waves
07. - Immunize (feat Liam Howlett)
08. - The Island - Pt I (Dawn)
09. - The Island - Pt II (Dusk)
10. - Comprachicos
11. - The Vulture
12. - Witchcraft
13. - Self Vs Self (feat In Flames)
14. - The Fountain (feat Steven Wilson)
15. - Encoder

-Технические данные:

Сонограмма - Hold Your Colour

Сонограмма - In Silico

Сонограмма - Live at Brixton Academy

Сонограмма - Immersion


EAC log - Hold Your Colour

Exact Audio Copy V0.99 prebeta 5 from 4. May 2009
EAC extraction logfile from 1. November 2009, 12:56
Pendulum / Hold Your Colour
Used drive : HL-DT-STDVD-RAM GH22LS30 Adapter: 3 ID: 2
Read mode : Secure
Utilize accurate stream : Yes
Defeat audio cache : Yes
Make use of C2 pointers : No
Read offset correction : 102
Overread into Lead-In and Lead-Out : No
Fill up missing offset samples with silence : Yes
Delete leading and trailing silent blocks : No
Null samples used in CRC calculations : Yes
Used interface : Native Win32 interface for Win NT & 2000
Gap handling : Appended to previous track
Used output format : Internal WAV Routines
Sample format : 44.100 Hz; 16 Bit; Stereo
TOC of the extracted CD
Track | Start | Length | Start sector | End sector
---------------------------------------------------------
1 | 0:00.00 | 0:54.35 | 0 | 4084
2 | 0:54.35 | 5:46.73 | 4085 | 30107
3 | 6:41.33 | 6:23.59 | 30108 | 58891
4 | 13:05.17 | 6:40.16 | 58892 | 88907
5 | 19:45.33 | 6:15.63 | 88908 | 117095
6 | 26:01.21 | 5:23.45 | 117096 | 141365
7 | 31:24.66 | 4:55.39 | 141366 | 163529
8 | 36:20.30 | 5:33.18 | 163530 | 188522
9 | 41:53.48 | 6:09.08 | 188523 | 216205
10 | 48:02.56 | 5:30.36 | 216206 | 240991
11 | 53:33.17 | 5:44.55 | 240992 | 266846
12 | 59:17.72 | 5:25.26 | 266847 | 291247
13 | 64:43.23 | 5:17.55 | 291248 | 315077
14 | 70:01.03 | 4:09.69 | 315078 | 333821
Track 1
Filename C:\2007 - Hold Your Colour\01 - Prelude.wav
Pre-gap length 0:00:02.00
Peak level 99.2 %
Track quality 99.8 %
Test CRC 872EA50D
Copy CRC 872EA50D
Accurately ripped (confidence 62) [AC868E0E]
Copy OK
Track 2
Filename C:\2007 - Hold Your Colour\02 - Slam.wav
Peak level 99.3 %
Track quality 100.0 %
Test CRC 39A7D235
Copy CRC 39A7D235
Accurately ripped (confidence 63) [01D08978]
Copy OK
Track 3
Filename C:\2007 - Hold Your Colour\03 - Plastic World (feat- Fats & TC).wav
Peak level 99.3 %
Track quality 100.0 %
Test CRC A533124B
Copy CRC A533124B
Accurately ripped (confidence 63) [A82D6B97]
Copy OK
Track 4
Filename C:\2007 - Hold Your Colour\04 - Fasten Your Seatbelt (feat- The Freestylers).wav
Peak level 99.3 %
Track quality 100.0 %
Test CRC 42419C04
Copy CRC 42419C04
Accurately ripped (confidence 63) [D1281DF8]
Copy OK
Track 5
Filename C:\2007 - Hold Your Colour\05 - Through The Loop.wav
Peak level 99.3 %
Track quality 100.0 %
Test CRC D4CEE453
Copy CRC D4CEE453
Accurately ripped (confidence 63) [59D3C199]
Copy OK
Track 6
Filename C:\2007 - Hold Your Colour\06 - Sounds Of Life (feat- Jasmine Yee).wav
Peak level 99.3 %
Track quality 100.0 %
Test CRC 64B89179
Copy CRC 64B89179
Accurately ripped (confidence 63) [4A4271E5]
Copy OK
Track 7
Filename C:\2007 - Hold Your Colour\07 - Girl In The Fire.wav
Peak level 99.3 %
Track quality 99.9 %
Test CRC F57193FE
Copy CRC F57193FE
Accurately ripped (confidence 63) [E73044A4]
Copy OK
Track 8
Filename C:\2007 - Hold Your Colour\08 - Tarantula (Pendulum vs Fresh feat- $pyda & Tenor Fly).wav
Peak level 100.0 %
Track quality 100.0 %
Test CRC 55E93376
Copy CRC 55E93376
Accurately ripped (confidence 62) [C532F01F]
Copy OK
Track 9
Filename C:\2007 - Hold Your Colour\09 - Out Here.wav
Peak level 100.0 %
Track quality 100.0 %
Test CRC 5DE47864
Copy CRC 5DE47864
Accurately ripped (confidence 63) [9E8CB002]
Copy OK
Track 10
Filename C:\2007 - Hold Your Colour\10 - Hold Your Colour.wav
Peak level 99.3 %
Track quality 100.0 %
Test CRC 9A6D49E8
Copy CRC 9A6D49E8
Accurately ripped (confidence 64) [1B42CBDC]
Copy OK
Track 11
Filename C:\2007 - Hold Your Colour\11 - The Terminal.wav
Peak level 99.3 %
Track quality 100.0 %
Test CRC BBFF31A3
Copy CRC BBFF31A3
Accurately ripped (confidence 64) [4EB62BFA]
Copy OK
Track 12
Filename C:\2007 - Hold Your Colour\12 - Streamline.wav
Peak level 98.9 %
Track quality 100.0 %
Test CRC B5C3AB08
Copy CRC B5C3AB08
Accurately ripped (confidence 64) [610EBF06]
Copy OK
Track 13
Filename C:\2007 - Hold Your Colour\13 - Blood Sugar.wav
Peak level 100.0 %
Track quality 100.0 %
Test CRC B8F9BEED
Copy CRC B8F9BEED
Accurately ripped (confidence 65) [6627B7C8]
Copy OK
Track 14
Filename C:\2007 - Hold Your Colour\14 - Axle Grinder.wav
Peak level 99.9 %
Track quality 100.0 %
Test CRC 9DF1E78D
Copy CRC 9DF1E78D
Accurately ripped (confidence 64) [A694DBDE]
Copy OK
All tracks accurately ripped
No errors occurred
End of status report

EAC log - In Silico

Exact Audio Copy V0.99 prebeta 4 from 23. January 2008
EAC extraction logfile from 8. June 2008, 20:03
Pendulum / In Silico
Used drive : _NEC DVD_RW ND-3520AW Adapter: 0 ID: 2
Read mode : Secure
Utilize accurate stream : Yes
Defeat audio cache : Yes
Make use of C2 pointers : No
Read offset correction : 48
Overread into Lead-In and Lead-Out : No
Fill up missing offset samples with silence : Yes
Delete leading and trailing silent blocks : No
Null samples used in CRC calculations : Yes
Used interface : Installed external ASPI interface
Gap handling : Appended to previous track
Used output format : User Defined Encoder
Selected bitrate : 128 kBit/s
Quality : High
Add ID3 tag : No
Command line compressor : C:\Program Files\Exact Audio Copy\Flac\flac.exe
Additional command line options : -8
TOC of the extracted CD
Track | Start | Length | Start sector | End sector
---------------------------------------------------------
1 | 0:00.00 | 5:27.53 | 0 | 24577
2 | 5:27.53 | 5:51.63 | 24578 | 50965
3 | 11:19.41 | 5:13.26 | 50966 | 74466
4 | 16:32.67 | 5:36.10 | 74467 | 99676
5 | 22:09.02 | 6:55.30 | 99677 | 130831
6 | 29:04.32 | 5:15.54 | 130832 | 154510
7 | 34:20.11 | 5:09.71 | 154511 | 177756
8 | 39:30.07 | 6:26.34 | 177757 | 206740
9 | 45:56.41 | 4:41.58 | 206741 | 227873
10 | 50:38.24 | 7:27.16 | 227874 | 261414
11 | 58:05.40 | 5:14.49 | 261415 | 285013
12 | 63:20.14 | 5:32.73 | 285014 | 309986
13 | 71:25.12 | 8:23.25 | 321387 | 359136
Track 1
Filename D:\Temp\Pendulum - In Silico\Pendulum - In Silico\01_Showdown.wav
Pre-gap length 0:00:02.00
Peak level 99.8 %
Track quality 100.0 %
Test CRC BEE431EB
Copy CRC BEE431EB
Copy OK
Track 2
Filename D:\Temp\Pendulum - In Silico\Pendulum - In Silico\02_Different.wav
Peak level 99.8 %
Track quality 100.0 %
Test CRC 2DCBCD92
Copy CRC 2DCBCD92
Copy OK
Track 3
Filename D:\Temp\Pendulum - In Silico\Pendulum - In Silico\03_Propane Nightmares.wav
Peak level 99.8 %
Track quality 100.0 %
Test CRC A25ED388
Copy CRC A25ED388
Copy OK
Track 4
Filename D:\Temp\Pendulum - In Silico\Pendulum - In Silico\04_Visions.wav
Peak level 99.8 %
Track quality 100.0 %
Test CRC 0F9020E8
Copy CRC 0F9020E8
Copy OK
Track 5
Filename D:\Temp\Pendulum - In Silico\Pendulum - In Silico\05_Midnight Runner.wav
Peak level 99.8 %
Track quality 99.9 %
Test CRC 3579FC29
Copy CRC 3579FC29
Copy OK
Track 6
Filename D:\Temp\Pendulum - In Silico\Pendulum - In Silico\06_The Other Side.wav
Peak level 99.8 %
Track quality 100.0 %
Test CRC A6E79D60
Copy CRC A6E79D60
Copy OK
Track 7
Filename D:\Temp\Pendulum - In Silico\Pendulum - In Silico\07_Mutiny.wav
Peak level 99.8 %
Track quality 100.0 %
Test CRC BBDDD630
Copy CRC BBDDD630
Copy OK
Track 8
Filename D:\Temp\Pendulum - In Silico\Pendulum - In Silico\08_9,000 Miles.wav
Peak level 99.8 %
Track quality 100.0 %
Test CRC 8BE0CF7D
Copy CRC 8BE0CF7D
Copy OK
Track 9
Filename D:\Temp\Pendulum - In Silico\Pendulum - In Silico\09_Granite.wav
Peak level 100.0 %
Track quality 100.0 %
Test CRC 5377754E
Copy CRC 5377754E
Copy OK
Track 10
Filename D:\Temp\Pendulum - In Silico\Pendulum - In Silico\10_The Tempest.wav
Peak level 99.8 %
Track quality 100.0 %
Test CRC 0ADDB659
Copy CRC 0ADDB659
Copy OK
Track 11
Filename D:\Temp\Pendulum - In Silico\Pendulum - In Silico\11_Propane Nightmares (VIP Remix).wav
Peak level 100.0 %
Track quality 100.0 %
Test CRC BAD73225
Copy CRC BAD73225
Copy OK
Track 12
Filename D:\Temp\Pendulum - In Silico\Pendulum - In Silico\12_Propane Nightmares (Celldweller Remix).wav
Peak level 99.8 %
Track quality 100.0 %
Test CRC AF048ADF
Copy CRC AF048ADF
Copy OK
No errors occurred
End of status report

EAC log - Live at Brixton Academy

Exact Audio Copy V0.99 prebeta 4 from 23. January 2008
Отчёт EAC об извлечении, выполненном 27. июня 2009, 20:55
Pendulum / Live at the Brixton Academy
Дисковод: SlimtypeDVD A DS8A1P Adapter: 0 ID: 0
Режим чтения : Достоверность
Использование точного потока : Да
Отключение кэша аудио : Да
Использование указателей C2 : Нет
Коррекция смещения при чтении : 594
Способность читать области Lead-in и Lead-out : Нет
Заполнение пропущенных сэмплов тишиной : Да
Удаление блоков с тишиной в начале и конце : Нет
При вычислениях CRC использовались нулевые сэмплы : Да
Интерфейс : Встроенный Win32-интерфейс для Win NT/2000
Выходной формат : Внутренние WAV-операции
Формат сэмплов : 44.100 Гц; 16 бит; стерео
TOC извлечённого CD
Трек | Старт | Длительность | Начальный сектор | Конечный сектор
---------------------------------------------------------------------
1 | 0:00.00 | 1:57.02 | 0 | 8776
2 | 1:57.02 | 5:52.42 | 8777 | 35218
3 | 7:49.44 | 5:50.40 | 35219 | 61508
4 | 13:40.09 | 4:26.12 | 61509 | 81470
5 | 18:06.21 | 4:48.48 | 81471 | 103118
6 | 22:54.69 | 6:04.24 | 103119 | 130442
7 | 28:59.18 | 5:16.36 | 130443 | 154178
8 | 34:15.54 | 5:27.22 | 154179 | 178725
9 | 39:43.01 | 5:57.11 | 178726 | 205511
10 | 45:40.12 | 1:34.09 | 205512 | 212570
11 | 47:14.21 | 4:19.44 | 212571 | 232039
12 | 51:33.65 | 7:13.67 | 232040 | 264581
13 | 58:47.57 | 2:19.33 | 264582 | 275039
14 | 61:07.15 | 4:58.28 | 275040 | 297417
15 | 66:05.43 | 4:56.34 | 297418 | 319651
16 | 71:02.02 | 8:19.52 | 319652 | 357128
Характеристики диапазона извлечения и сообщения об ошибках
Выбранный диапазон
Имя файла C:\Documents and Settings\User\My Documents\Pendulum - Live at the Brixton Academy.wav
Пиковый уровень 99.9 %
Качество диапазона 100.0 %
CRC копии 3D27B6A7
Копирование... OK
Ошибок не произошло
AccurateRip: сводка
Трек 1 точное извлечение (доверие 2) [ACE79608]
Трек 2 точное извлечение (доверие 2) [23BF8F76]
Трек 3 точное извлечение (доверие 2) [7CAB3D45]
Трек 4 точное извлечение (доверие 2) [09493345]
Трек 5 точное извлечение (доверие 2) [5084CA90]
Трек 6 точное извлечение (доверие 2) [892DE764]
Трек 7 точное извлечение (доверие 2) [25198E05]
Трек 8 точное извлечение (доверие 2) [ED3724C9]
Трек 9 точное извлечение (доверие 2) [ED5C3AF7]
Трек 10 точное извлечение (доверие 2) [7B9EA49F]
Трек 11 точное извлечение (доверие 2) [477D89F6]
Трек 12 точное извлечение (доверие 2) [B71FD82D]
Трек 13 точное извлечение (доверие 2) [79264608]
Трек 14 точное извлечение (доверие 2) [BC07E404]
Трек 15 точное извлечение (доверие 2) [C954ECDA]
Трек 16 точное извлечение (доверие 2) [52EA2A7C]
Все треки извлечены точно
Конец отчёта

EAC log - Immersion

Exact Audio Copy V0.99 prebeta 5 from 4. May 2009
EAC extraction logfile from 20. May 2010, 17:20
Pendulum / Immersion
Used drive : HL-DT-STDVDRAM GH20NS10 Adapter: 1 ID: 0
Read mode : Secure
Utilize accurate stream : Yes
Defeat audio cache : Yes
Make use of C2 pointers : No
Read offset correction : 667
Overread into Lead-In and Lead-Out : No
Fill up missing offset samples with silence : Yes
Delete leading and trailing silent blocks : No
Null samples used in CRC calculations : Yes
Used interface : Native Win32 interface for Win NT & 2000
Gap handling : Appended to previous track
Used output format : User Defined Encoder
Selected bitrate : 896 kBit/s
Quality : High
Add ID3 tag : No
Command line compressor : D:\EACPortable\App\FLAC\flac.exe
Additional command line options : -V -8 -T "artist=%a" -T "title=%t" -T "album=%g" -T "date=%y" -T "tracknumber=%n" -T "genre=%m" %s
TOC of the extracted CD
Track | Start | Length | Start sector | End sector
---------------------------------------------------------
1 | 0:00.00 | 1:09.00 | 0 | 5174
2 | 1:09.00 | 6:38.73 | 5175 | 35097
3 | 7:47.73 | 5:03.74 | 35098 | 57896
4 | 12:51.72 | 5:02.73 | 57897 | 80619
5 | 17:54.70 | 4:13.54 | 80620 | 99648
6 | 22:08.49 | 4:55.02 | 99649 | 121775
7 | 27:03.51 | 4:36.51 | 121776 | 142526
8 | 31:40.27 | 5:20.09 | 142527 | 166535
9 | 37:00.36 | 4:09.64 | 166536 | 185274
10 | 41:10.25 | 2:48.38 | 185275 | 197912
11 | 43:58.63 | 4:03.45 | 197913 | 216182
12 | 48:02.33 | 4:12.59 | 216183 | 235141
13 | 52:15.17 | 4:45.40 | 235142 | 256556
14 | 57:00.57 | 5:00.65 | 256557 | 279121
15 | 62:01.47 | 5:21.29 | 279122 | 303225
Track 1
Filename D:\2010 - Immersion\01 - Genesis.wav
Pre-gap length 0:00:02.00
Peak level 95.7 %
Track quality 100.0 %
Test CRC E846E120
Copy CRC E846E120
Track not present in AccurateRip database
Copy OK
Track 2
Filename D:\2010 - Immersion\02 - Salt In The Wounds.wav
Peak level 100.0 %
Track quality 100.0 %
Test CRC D114B4D9
Copy CRC D114B4D9
Track not present in AccurateRip database
Copy OK
Track 3
Filename D:\2010 - Immersion\03 - Watercolour.wav
Peak level 99.7 %
Track quality 100.0 %
Test CRC DD2C1260
Copy CRC DD2C1260
Track not present in AccurateRip database
Copy OK
Track 4
Filename D:\2010 - Immersion\04 - Set Me On Fire.wav
Peak level 99.7 %
Track quality 100.0 %
Test CRC 92EE0C22
Copy CRC 92EE0C22
Track not present in AccurateRip database
Copy OK
Track 5
Filename D:\2010 - Immersion\05 - Crush.wav
Peak level 99.7 %
Track quality 100.0 %
Test CRC 6DFF9736
Copy CRC 6DFF9736
Track not present in AccurateRip database
Copy OK
Track 6
Filename D:\2010 - Immersion\06 - Under The Waves.wav
Peak level 99.7 %
Track quality 100.0 %
Test CRC 84961450
Copy CRC 84961450
Track not present in AccurateRip database
Copy OK
Track 7
Filename D:\2010 - Immersion\07 - Immunize (feat. Liam H).wav
Peak level 99.7 %
Track quality 100.0 %
Test CRC 7B5AC443
Copy CRC 7B5AC443
Track not present in AccurateRip database
Copy OK
Track 8
Filename D:\2010 - Immersion\08 - The Island - Pt. I (Dawn).wav
Peak level 99.7 %
Track quality 99.9 %
Test CRC F5B669BD
Copy CRC F5B669BD
Track not present in AccurateRip database
Copy OK
Track 9
Filename D:\2010 - Immersion\09 - The Island - Pt. 2 (Dusk).wav
Peak level 99.7 %
Track quality 100.0 %
Test CRC 227DF5FE
Copy CRC 227DF5FE
Track not present in AccurateRip database
Copy OK
Track 10
Filename D:\2010 - Immersion\10 - Comprachicos.wav
Peak level 99.7 %
Track quality 100.0 %
Test CRC 47D6B547
Copy CRC 47D6B547
Track not present in AccurateRip database
Copy OK
Track 11
Filename D:\2010 - Immersion\11 - The Vulture.wav
Peak level 99.8 %
Track quality 100.0 %
Test CRC DD3F4B99
Copy CRC DD3F4B99
Track not present in AccurateRip database
Copy OK
Track 12
Filename D:\2010 - Immersion\12 - Witchcraft.wav
Peak level 100.0 %
Track quality 100.0 %
Test CRC A1B17533
Copy CRC A1B17533
Track not present in AccurateRip database
Copy OK
Track 13
Filename D:\2010 - Immersion\13 - Self vs Self (feat. In Flames).wav
Peak level 99.7 %
Track quality 100.0 %
Test CRC 91683F27
Copy CRC 91683F27
Track not present in AccurateRip database
Copy OK
Track 14
Filename D:\2010 - Immersion\14 - The Fountain (feat. Steve Wilson).wav
Peak level 99.7 %
Track quality 100.0 %
Test CRC 51FE7CDD
Copy CRC 51FE7CDD
Track not present in AccurateRip database
Copy OK
Track 15
Filename D:\2010 - Immersion\15 - Encoder.wav
Peak level 99.7 %
Track quality 100.0 %
Test CRC 6DF638C1
Copy CRC 6DF638C1
Track not present in AccurateRip database
Copy OK
None of the tracks are present in the AccurateRip database
No errors occurred
End of status report

-Доп. Информация:Pendulum — австралийский музыкальный коллектив, сформированный в середине 2002 года. Считается одной из наиболее прогрессивных drum’n’bass-команд, отличается своим особым звучанием. Сингл Pendulum «Vault» стал одним из самых громких релизов 2003 года, получив премию журнала «Knowledge Magazine» — «Best Single of 2003». C этого момента продвижением и продюсированием Pendulum занялись одни из наиболее влиятельных людей в drum’n’bass-индустрии — Adam F и Fresh (Bad Company). Новое звучание Pendulum настолько привлекло их внимание, что коллективу было предложено присоединиться к только открывшемуся на тот момент, а ныне очень влиятельному лейблу — Breakbeat Kaos. Итогом этого союза стало появление суперсингла — Another Planet, а также альбома «Voyager». Летом 2005 года Pendulum выпускают альбом «Hold Your Colour», трэки из которого сразу же оказываются на первых местах чартов. Появляется видеоклип на композицию «Slam». Сразу же после выхода этого альбома Pendulum выпускают сингл на XL Recordings с ремиксом на песню Prodigy — «Voodoo People». Итогом этого становятся съемки совместного клипа двух коллективов. Примечательно, что EA TRAX, известная своим скрупулёзным отношением к выбору саундтрека к своим играм, внесла три композиции Pendulum в саундтрек к игре Need for Speed: Undercover. Были отобраны 9000 Miles, Granite и The Tempest.


Last edited by bugagazavr on 2010-05-26 21:55; edited 4 times in total
[Profile]  [PM] 

Red_Bandit

Longevity:
11 years
Posts:
169

Первый диск: WAV track
Второй диск: FLAC trask
Третий диск: WAV pack
Смотри по параметру: Used output format/Выходной формат
И по типу отчета в логе. Где если мы видим -
Код:
Track 1
Filename D:\Temp\Pendulum - In Silico\Pendulum - In Silico\01_Showdown.wav
Pre-gap length 0:00:02.00
Peak level 99.8 %
Track quality 100.0 %
Test CRC BEE431EB
Copy CRC BEE431EB
Copy OK
Track 2
Filename D:\Temp\Pendulum - In Silico\Pendulum - In Silico\02_Different.wav
Peak level 99.8 %
Track quality 100.0 %
Test CRC 2DCBCD92
Copy CRC 2DCBCD92
Copy OK
Track 3  и так далее...
То рип потрековый.
Если видим
Код:
Имя файла C:\Documents and Settings\User\My Documents\Pendulum - Live at the Brixton Academy.wav
Пиковый уровень 99.9 %
Качество диапазона 100.0 %
CRC копии 3D27B6A7
Копирование... OK
Ошибок не произошло
То рип соответственно образом.
Значит тут в "Источник" логичным будет перечислить их через запятую. Что бы сразу было ясно то, что раздача собрана с миру по нитке. Где рипы производились на разных приводах и в разных условиях.
Stop complaining. I know what's best for you. © Steve Jobs
[Profile]  [PM] 

bugagazavr ®

Longevity:
11 years
Posts:
96

Поправил
[Profile]  [PM] 

ni-ck

Longevity:
11 years
Posts:
154

По ходу я первый качаю. Спасибо за раздачу. А побыстрее нельзя?
[Profile]  [PM] 

bugagazavr ®

Longevity:
11 years
Posts:
96

Незачто, канал почти не забит, порты открыты, на раздаче 24/7
[Profile]  [PM] 

::noangel::

Longevity:
10 years
Posts:
7

ппц, у тебя модем чтоли? еле-еле качается...
[Profile]  [PM] 

bugagazavr ®

Longevity:
11 years
Posts:
96

ппц, у тебя модем чтоли? еле-еле качается...
Нет, это не модем, это называется провайдер который любит резать пиринговый траффик :(
Инными словами, стабильная отдача у меня только в ночное время, когда заканчивается так называемый час-пик.
[Profile]  [PM] 

bugagazavr ®

Longevity:
11 years
Posts:
96

Обновил раздачу. Добавил альбом Immersion
[Profile]  [PM] 

ni-ck

Longevity:
11 years
Posts:
154

bugagazavr
Биг сенкс!
Добавь газку icon_rolleyes


Last edited by ni-ck on 2010-06-30 07:20; edited 1 time in total
[Profile]  [PM] 

bugagazavr ®

Longevity:
11 years
Posts:
96

К великому сожалению, провайдер продолжает шейпить пиринговый траффик, поэтому нормальная скорость будет только ночью или гденить в июне когда сдам сессию и подрублю билайн :)
[Profile]  [PM] 

Jonick

Longevity:
10 years
Posts:
2

А этот формат будет без конвертации воспроизводиться на iOS девайсах, или придется чем то конвертить?
[Profile]  [PM] 

Fduch29

Longevity:
11 years
Posts:
80

да чем флак открыть то?
[Profile]  [PM] 
Display posts from previous:    

The time now is: Today 18:25

All times are GMT + 4 Hours



You cannot post new topics in this forum
You cannot reply to topics in this forum
You cannot edit your posts in this forum
You cannot delete your posts in this forum
You cannot vote in polls in this forum
You cannot attach files in this forum
You cannot download files in this forum