Новые торренты

Самые скачиваемые

5 C

5

 

PSYHASOMATIC ®

Longevity:
6 years 2 months
Posts:
58

Angerfist - In A Million Years E.P.
Страна: Нидерланды
Жанр: Hardcore, gabber
Год выпуска: 2008
Формат: ALAC (tracks)
Продолжительность: 00:19:31
Релиз от «YUPPI STREET CREW»

Трэклист:


01. Angerfist - In A Million Years
02. Angerfist - Broken Chain (feat. Crucifier) (Mad Dog Remix)
03. Angerfist - Brother`s Keepers (feat. Cixx & Kokka)
04. Angerfist - Stainless Steel (Predator Remix)

Технические данные:

01. Angerfist - In A Million Years:

Сонограмма:

Media Info:

General
Complete name : C:\Angerfist - In A Million Years E.P\01_Angerfist - In A Million Years.m4a
Format : MPEG-4
Format profile : Apple audio with iTunes info
Codec ID : M4A
File size : 38.3 MiB
Duration : 4mn 45s
Overall bit rate mode : Variable
Overall bit rate : 1 125 Kbps
Album : In A Million Years E.P.
Track name : In A Million Years
Track name/Position : 1
Performer : Angerfist
Genre : Terror
Recorded date : 2008
Writing application : Lavf55.37.101
Cover : Yes
Audio
ID : 1
Format : ALAC
Codec ID : alac
Codec ID/Info : Apple Lossless Audio Codec
Duration : 4mn 45s
Duration_LastFrame : -17ms
Bit rate mode : Variable
Bit rate : 1 122 Kbps
Nominal bit rate : 1 411 Kbps
Channel(s) : 2 channels
Sampling rate : 44.1 KHz
Bit depth : 16 bits
Stream size : 38.2 MiB (100%)

02. Angerfist - Broken Chain (feat. Crucifier) (Mad Dog Remix):

Сонограмма:

Media Info:

General
Complete name : C:\Angerfist - In A Million Years E.P\02_Angerfist - Broken Chain (feat. Crucifier) (Mad Dog Remix).m4a
Format : MPEG-4
Format profile : Apple audio with iTunes info
Codec ID : M4A
File size : 37.6 MiB
Duration : 4mn 56s
Overall bit rate mode : Variable
Overall bit rate : 1 063 Kbps
Album : In A Million Years E.P.
Track name : Broken Chain (feat. Crucifier) (Mad Dog Remix)
Track name/Position : 2
Performer : Angerfist
Genre : Terror
Recorded date : 2008
Writing application : Lavf55.37.101
Cover : Yes
Audio
ID : 1
Format : ALAC
Codec ID : alac
Codec ID/Info : Apple Lossless Audio Codec
Duration : 4mn 56s
Duration_LastFrame : -35ms
Bit rate mode : Variable
Bit rate : 1 060 Kbps
Nominal bit rate : 1 411 Kbps
Channel(s) : 2 channels
Sampling rate : 44.1 KHz
Bit depth : 16 bits
Stream size : 37.5 MiB (100%)

03. Angerfist - Brother's Keepers (feat. Cixx & Kokka):

Сонограмма:

Media Info:

General
Complete name : C:\Angerfist - In A Million Years E.P\03_Angerfist - Brother's Keepers (feat. Cixx & Kokka).m4a
Format : MPEG-4
Format profile : Apple audio with iTunes info
Codec ID : M4A
File size : 37.8 MiB
Duration : 5mn 4s
Overall bit rate mode : Variable
Overall bit rate : 1 041 Kbps
Album : In A Million Years E.P.
Track name : Brother's Keepers (feat. Cixx & Kokka)
Track name/Position : 3
Performer : Angerfist
Genre : Terror
Recorded date : 2008
Writing application : Lavf55.37.101
Cover : Yes
Audio
ID : 1
Format : ALAC
Codec ID : alac
Codec ID/Info : Apple Lossless Audio Codec
Duration : 5mn 4s
Duration_LastFrame : -20ms
Bit rate mode : Variable
Bit rate : 1 038 Kbps
Nominal bit rate : 1 411 Kbps
Channel(s) : 2 channels
Sampling rate : 44.1 KHz
Bit depth : 16 bits
Stream size : 37.7 MiB (100%)

04. Angerfist - Stainless Steel (Predator Remix):

Сонограмма:

Media Info:

General
Complete name : C:\Angerfist - In A Million Years E.P\04_Angerfist - Stainless Steel (Predator Remix).m4a
Format : MPEG-4
Format profile : Apple audio with iTunes info
Codec ID : M4A
File size : 35.1 MiB
Duration : 4mn 45s
Overall bit rate mode : Variable
Overall bit rate : 1 032 Kbps
Album : In A Million Years EP
Track name : Stainless Steel (Predator Remix)
Track name/Position : 4
Performer : Angerfist
Genre : Terror
Recorded date : 2008
Writing application : Lavf55.37.101
Cover : Yes
Audio
ID : 1
Format : ALAC
Codec ID : alac
Codec ID/Info : Apple Lossless Audio Codec
Duration : 4mn 45s
Duration_LastFrame : -67ms
Bit rate mode : Variable
Bit rate : 1 029 Kbps
Nominal bit rate : 1 411 Kbps
Channel(s) : 2 channels
Sampling rate : 44.1 KHz
Bit depth : 16 bits
Stream size : 35.0 MiB (100%)
Если Вы скачиваете, а на раздаче никого, то напишите мне об этом в личном сообщении. Всегда помогу!
[Profile]  [PM] 
Display posts from previous:    

The time now is: Today 19:05

All times are GMT + 4 Hours



You cannot post new topics in this forum
You cannot reply to topics in this forum
You cannot edit your posts in this forum
You cannot delete your posts in this forum
You cannot vote in polls in this forum
You cannot attach files in this forum
You cannot download files in this forum