Новые торренты

Самые скачиваемые

Топ 5 Cидеров

Топ 5 Личеров

 

PSYHASOMATIC ®

Стаж:
4 года 4 месяца
Сообщений:
59

Bes – Neuropunk Podcast: Part 28
Страна: Россия
Жанр: Drum & Bass
Год выпуска: 2013
Формат: ALAC (tracks)
Релиз от «YUPPI STREET CREW»

Трэклист:


01. Place 2b & Paimon - Signal
02. Agressor Bunx - Move
03. Neonlight & Receptor - 800 Pound Gorilla
04. Dextems - Bad Blocks
05. Teddy Killerz - New Drums
06. Kubrak - No Fear
07. Receptor & Engage - Gothic
08. Dyamorph - Rainbow Vomit
10. Kije - Apathy (Directive4 Remix)
11. Loud Sound - Domination
12. Engage - Tyrant
13. MaxNRG - Metro 2033 (VIP)
14. Receptor - New Message
15. Teddy Killerz & Nphonix - Earthshaker
16. Inf - Mindeater
17. Place 2b - Iron Man (Jabro Grow Remix)
18. D-Iolax - Pyramid
19. Absurd - Thereafter
20. Astrix - Mir (Engage Booleg)
21. Noel - Bore
22. Agressor Bunx - Disciples
23. Nphonix & MJ Free - Speedway
24. Receptor - Algebra
25. Kije - Outsider
26. Yabol - Paradise Lost (C.A.2K Remix)
27. NU4M & Mistique - Expulsive (feat. NIA)
28. Mizo - Hypersensibility
29. Nickbee - I Say You
30. Fade & Andy Pain & Z Connection - Target
31. Hightech - After Us
32. Nickbee - Human Philosophy
33. Flame - Back In Time (feat. Shamil)
34. Engage - Tourmaline
35. Derrick & Tonika - Nowadays
36. Exr - Contact

Технические данные:

01. Neuropunk Podcast: Part 28 (Mixed By Bes):

Сонограмма:

Media Info:

General
Complete name : C:\Neuropunk Podcast - Part 28\01_Neuropunk Podcast - Part 28 (Mixed By Bes).m4a
Format : MPEG-4
Format profile : Apple audio with iTunes info
Codec ID : M4A
File size : 554 MiB
Duration : 1h 16mn
Overall bit rate mode : Variable
Overall bit rate : 1 009 Kbps
Track name : Neuropunk Podcast: Part 28
Performer : Bes
Genre : Club-House
Recorded date : 2013
Writing application : Lavf55.37.101
Cover : Yes
Audio
ID : 1
Format : ALAC
Codec ID : alac
Codec ID/Info : Apple Lossless Audio Codec
Duration : 1h 16mn
Bit rate mode : Variable
Bit rate : 1 008 Kbps
Nominal bit rate : 1 411 Kbps
Channel(s) : 2 channels
Sampling rate : 44.1 KHz
Bit depth : 16 bits
Stream size : 553 MiB (100%)

02. Neuropunk Podcast: Part 28 (Mixed By Bes) (No Voice):

Сонограмма:

Media Info:

General
Complete name : C:\Neuropunk Podcast - Part 28\02_Neuropunk Podcast - Part 28 (Mixed By Bes) (No Voice).m4a
Format : MPEG-4
Format profile : Apple audio with iTunes info
Codec ID : M4A
File size : 575 MiB
Duration : 1h 16mn
Overall bit rate mode : Variable
Overall bit rate : 1 048 Kbps
Track name : Neuropunk Podcast: Part 28 (No Voice)
Performer : Bes
Recorded date : 2013
Writing application : Lavf55.37.101
Cover : Yes
Audio
ID : 1
Format : ALAC
Codec ID : alac
Codec ID/Info : Apple Lossless Audio Codec
Duration : 1h 16mn
Duration_LastFrame : -73ms
Bit rate mode : Variable
Bit rate : 1 048 Kbps
Nominal bit rate : 1 411 Kbps
Channel(s) : 2 channels
Sampling rate : 44.1 KHz
Bit depth : 16 bits
Stream size : 575 MiB (100%)
Если Вы скачиваете, а на раздаче никого, то напишите мне об этом в личном сообщении. Всегда помогу!
[Профиль]  [ЛС] 
Показать сообщения:    

Текущее время: Сегодня 11:27

Часовой пояс: GMT + 4



Вы не можете начинать темы
Вы не можете отвечать на сообщения
Вы не можете редактировать свои сообщения
Вы не можете удалять свои сообщения
Вы не можете голосовать в опросах
Вы не можете прикреплять файлы к сообщениям
Вы не можете скачивать файлы