Новые торренты

Самые скачиваемые

Топ 5 Cидеров

Топ 5 Личеров

 

iksovina ®

Стаж:
2 года 10 месяцев
Сообщений:
2

Adriano Celentano - Discography | Адриано Челентано - Дискография
Страна: Italy (Италия)
Жанр: POP
Год выпуска: 1965 - 2008
Формат: ALAC (tracks)
Битрейт аудио: lossless
Продолжительность: 35 CD
Трэклист:

Официальные альбомы

Non mi dir | год: 1965 | продолжительность: 36:29

1. Stai lontana da me (Tower of strenght)
(текст Mogol; музыка Burt Bacharach и Bob Hilliard)
2. Sei rimasta sola
(текст Miki Del Prete; музыка Ricky Gianco)
3. Uno strano tipo
(текст Mogol и Miki Del Prete; музыка Don Backy и Adriano Celentano)
4. Pregher? (Stand by me)
(текст Don Backy; музыка Ben E. King и Elmo Glick)
5. Grazie, prego, scusi
(текст Mogol и Miki Del Prete; музыка Natale Massara)
6. Capirai
(текст Mogol; музыка Natale Massara)
7. Ciao ragazzi
(текст Mogol и Miki Del Prete; музыка Adriano Celentano)
8. Non mi dir
(текст Miki Del Prete и Claudio Adorni; музыка Alex Alstone и George Tabet)
9. ? inutile davvero
(текст Mogol и Miki Del Prete; музыка Gino Santercole)
10. Le notti lunghe
(текст Adricel; музыка Natale Massara и Paolo Zavallone)
11. Il problema pi? importante (if you gotta make a fool of somebody)
(текст Luciano Beretta и Miki Del Prete; музыка Rudy Clark)
12. Sabato triste
(текст Mogol; музыка Don Backy и Adriano Celentano)
13. Non pianger?
(текст Mogol; музыка Detto Mariano)
14. Chi ce l’ha con me
(текст Mogol и Miki Del Prete; музыка Natale Massara)
15. Amami e baciami (бонус)

EAC

Exact Audio Copy V0.99 prebeta 5 from 4. May 2009
Отчёт EAC об извлечении, выполненном 23. сентября 2009, 14:03
Adriano Celentano / Non Mi Dir
Дисковод: PLEXTOR CD-R PX-W4824A Adapter: 0 ID: 0
Режим чтения : Достоверность
Использование точного потока : Да
Отключение кэша аудио : Да
Использование указателей C2 : Нет
Коррекция смещения при чтении : 98
Способность читать области Lead-in и Lead-out : Да
Заполнение пропущенных сэмплов тишиной : Да
Удаление блоков с тишиной в начале и конце : Нет
При вычислениях CRC использовались нулевые сэмплы : Да
Интерфейс : Встроенный Win32-интерфейс для Win NT/2000
Выходной формат : Пользовательский кодировщик
Выбранный битрейт : 1024 kBit/s
Качество : Высокий
Добавление ID3-тэга : Нет
Утилита сжатия : C:\Program Files\Exact Audio Copy\Flac\flac.exe
Дополнительные параметры : -8 -V %s -o %d
TOC извлечённого CD
Трек | Старт | Длительность | Начальный сектор | Конечный сектор
---------------------------------------------------------------------
1 | 0:00.00 | 2:12.65 | 0 | 9964
2 | 2:12.65 | 2:19.70 | 9965 | 20459
3 | 4:32.60 | 2:05.42 | 20460 | 29876
4 | 6:38.27 | 2:58.25 | 29877 | 43251
5 | 9:36.52 | 2:04.30 | 43252 | 52581
6 | 11:41.07 | 1:54.68 | 52582 | 61199
7 | 13:36.00 | 2:33.25 | 61200 | 72699
8 | 16:09.25 | 2:12.42 | 72700 | 82641
9 | 18:21.67 | 2:33.35 | 82642 | 94151
10 | 20:55.27 | 2:00.25 | 94152 | 103176
11 | 22:55.52 | 2:31.65 | 103177 | 114566
12 | 25:27.42 | 3:22.73 | 114567 | 129789
13 | 28:50.40 | 2:31.72 | 129790 | 141186
14 | 31:22.37 | 3:18.40 | 141187 | 156076
15 | 34:41.02 | 1:57.43 | 156077 | 164894
Характеристики диапазона извлечения и сообщения об ошибках
Выбранный диапазон
Имя файла D:\Музыка\Adriano Celentano\1965 - Non Mi Dir\Adriano Celentano - Non Mi Dir.wav
Пиковый уровень 100.0 %
Качество диапазона 99.9 %
CRC копии F3E29FA1
Копирование... OK
Ошибок не произошло
AccurateRip: сводка
Трек 1 нет в базе данных
Трек 2 нет в базе данных
Трек 3 нет в базе данных
Трек 4 нет в базе данных
Трек 5 нет в базе данных
Трек 6 нет в базе данных
Трек 7 нет в базе данных
Трек 8 нет в базе данных
Трек 9 нет в базе данных
Трек 10 нет в базе данных
Трек 11 нет в базе данных
Трек 12 нет в базе данных
Трек 13 нет в базе данных
Трек 14 нет в базе данных
Трек 15 нет в базе данных
Ни одного трека нет в базе AccurateRip
Конец отчёта

La festa | год: 1966 | продолжительность: 38:13

1. Il ragazzo della via Gluck
(текст Luciano Beretta и Miki Del Prete; музыка Adriano Celentano)
2. Chi ce l’ha con me
(текст Mogol и Miki Del Prete; музыка Natale Massara)
3. Chi era lui
(текст Mogol и Miki Del Prete; музыка Paolo Conte)
4. Il problema pi? importante (If you Gotta Make a Fool of Somebody)
(текст Luciano Beretta и Miki Del Prete; музыка Rudy Clark)
5. Sabato triste
(текст Miki Del Prete; музыка Don Backy и Adriano Celentano)
6. Non mi dir
(текст Miki Del Prete и Claudio Adorni; музыка Alex Alstone и George Tabet)
7. La festa
(текст Luciano Beretta и Miki Del Prete; музыка Natale Massara)
8. Stai lontana da me (Tower of Strenght)
(текст Mogol; музыка Burt Bacharach и Bob Hilliard)
9. Sei rimasta sola
(текст Miki Del Prete; музыка Ricky Gianco)
10. Uno strano tipo
(текст Mogol и Miki Del Prete; музыка Don Backy и Adriano Celentano)
11. Pregher? (Stand by me)
(текст Don Backy; музыка Ben E. King и Elmo Glick)
12. Grazie, prego, scusi
(текст Mogol и Miki Del Prete; музыка Natale Massara)
13. Capirai
(текст Mogol; музыка Natale Massara)
14. Ciao ragazzi
(текст Mogol и Miki Del Prete; музыка Adriano Celentano)

EAC

Exact Audio Copy V0.99 prebeta 5 from 4. May 2009
Отчёт EAC об извлечении, выполненном 22. сентября 2009, 16:49
Adriano Celentano / La Festa
Дисковод: PLEXTOR CD-R PX-W4824A Adapter: 0 ID: 0
Режим чтения : Достоверность
Использование точного потока : Да
Отключение кэша аудио : Да
Использование указателей C2 : Нет
Коррекция смещения при чтении : 98
Способность читать области Lead-in и Lead-out : Да
Заполнение пропущенных сэмплов тишиной : Да
Удаление блоков с тишиной в начале и конце : Нет
При вычислениях CRC использовались нулевые сэмплы : Да
Интерфейс : Встроенный Win32-интерфейс для Win NT/2000
Выходной формат : Пользовательский кодировщик
Выбранный битрейт : 1024 kBit/s
Качество : Высокий
Добавление ID3-тэга : Нет
Утилита сжатия : C:\Program Files\Exact Audio Copy\Flac\flac.exe
Дополнительные параметры : -8 -V %s -o %d
TOC извлечённого CD
Трек | Старт | Длительность | Начальный сектор | Конечный сектор
---------------------------------------------------------------------
1 | 0:00.00 | 4:15.36 | 0 | 19160
2 | 4:15.36 | 3:18.31 | 19161 | 34041
3 | 7:33.67 | 2:49.32 | 34042 | 46748
4 | 10:23.24 | 2:32.51 | 46749 | 58199
5 | 12:56.00 | 3:22.63 | 58200 | 73412
6 | 16:18.63 | 2:13.13 | 73413 | 83400
7 | 18:32.01 | 3:41.50 | 83401 | 100025
8 | 22:13.51 | 2:12.63 | 100026 | 109988
9 | 24:26.39 | 2:19.71 | 109989 | 120484
10 | 26:46.35 | 2:05.41 | 120485 | 129900
11 | 28:52.01 | 2:58.24 | 129901 | 143274
12 | 31:50.25 | 2:04.30 | 143275 | 152604
13 | 33:54.55 | 1:54.67 | 152605 | 161221
14 | 35:49.47 | 2:31.33 | 161222 | 172579
Характеристики диапазона извлечения и сообщения об ошибках
Выбранный диапазон
Имя файла D:\Музыка\Adriano Celentano\1966 - La Festa\Adriano Celentano - La Festa.wav
Пиковый уровень 99.9 %
Качество диапазона 100.0 %
CRC копии 4CA829BA
Копирование... OK
Ошибок не произошло
AccurateRip: сводка
Трек 1 нет в базе данных
Трек 2 нет в базе данных
Трек 3 нет в базе данных
Трек 4 нет в базе данных
Трек 5 нет в базе данных
Трек 6 нет в базе данных
Трек 7 нет в базе данных
Трек 8 нет в базе данных
Трек 9 нет в базе данных
Трек 10 нет в базе данных
Трек 11 нет в базе данных
Трек 12 нет в базе данных
Трек 13 нет в базе данных
Трек 14 нет в базе данных
Ни одного трека нет в базе AccurateRip
Конец отчёта

Il ragazzo della via Gluck

1. Il ragazzo della via Gluck
(текст Luciano Beretta и Miki Del Prete; музыка Adriano Celentano)
2. ? inutile davvero
(текст Mogol и Miki Del Prete; музыка Gino Santercole)
3. Ciao ragazzi
(текст Mogol и Miki Del Prete; музыка Adriano Celentano)
4. E voi ballate
(текст Nicola Salerno и Miki Del Prete; музыка Nello Ciangherotti)
5. Chi ce l’ha con me
(текст Mogol и Miki Del Prete; музыка Natale Massara)
6. Non mi dir
(текст Miki Del Prete и Claudio Adorni; музыка Alex Alstone и George Tabet)
7. Uno strano tipo
(текст Mogol и Miki Del Prete; музыка Don Backy и Adriano Celentano)
8. Il mio amico James Bond
(текст Mogol и Miki Del Prete; музыка Barry и Black)
9. La festa
(текст Luciano Beretta и Miki Del Prete; музыка Natale Massara)
10. Chi era lui
(текст Mogol и Miki Del Prete; музыка Paolo Conte)
11. Sono un simpatico
(текст Luciano Beretta, Rosario Leva и Don Backy; музыка Gianfranco Reverberi)
12. Il problema pi? importante (If you Gotta Make a Fool of Somebody)
(текст Luciano Beretta и Miki Del Prete; музыка Rudy Clark)
13. Due tipi come noi
(текст Luciano Beretta и Miki Del Prete; музыка Gino Santercole)
14. Ringo
(текст Castellano e Pipolo; музыка Don Robertson и Hal Blair)

EAC

Exact Audio Copy V0.99 prebeta 5 from 4. May 2009
Отчёт EAC об извлечении, выполненном 23. сентября 2009, 9:34
Adriano Celentano / Il ragazzo della via Gluck
Дисковод: PLEXTOR CD-R PX-W4824A Adapter: 0 ID: 0
Режим чтения : Достоверность
Использование точного потока : Да
Отключение кэша аудио : Да
Использование указателей C2 : Нет
Коррекция смещения при чтении : 98
Способность читать области Lead-in и Lead-out : Да
Заполнение пропущенных сэмплов тишиной : Да
Удаление блоков с тишиной в начале и конце : Нет
При вычислениях CRC использовались нулевые сэмплы : Да
Интерфейс : Встроенный Win32-интерфейс для Win NT/2000
Выходной формат : Пользовательский кодировщик
Выбранный битрейт : 1024 kBit/s
Качество : Высокий
Добавление ID3-тэга : Нет
Утилита сжатия : C:\Program Files\Exact Audio Copy\Flac\flac.exe
Дополнительные параметры : -8 -V %s -o %d
TOC извлечённого CD
Трек | Старт | Длительность | Начальный сектор | Конечный сектор
---------------------------------------------------------------------
1 | 0:00.00 | 4:16.00 | 0 | 19199
2 | 4:16.00 | 2:30.54 | 19200 | 30503
3 | 6:46.54 | 2:34.11 | 30504 | 42064
4 | 9:20.65 | 2:57.43 | 42065 | 55382
5 | 12:18.33 | 3:19.38 | 55383 | 70345
6 | 15:37.71 | 2:13.72 | 70346 | 80392
7 | 17:51.68 | 2:05.32 | 80393 | 89799
8 | 19:57.25 | 2:10.25 | 89800 | 99574
9 | 22:07.50 | 3:42.26 | 99575 | 116250
10 | 25:50.01 | 2:49.43 | 116251 | 128968
11 | 28:39.44 | 2:43.36 | 128969 | 141229
12 | 31:23.05 | 2:32.31 | 141230 | 152660
13 | 33:55.36 | 2:08.63 | 152661 | 162323
14 | 36:04.24 | 3:07.17 | 162324 | 176365
Характеристики диапазона извлечения и сообщения об ошибках
Выбранный диапазон
Имя файла D:\Музыка\Adriano Celentano\1966 - Il ragazzo della via Gluck\Adriano Celentano - Il ragazzo della via Gluck.wav
Пиковый уровень 97.7 %
Качество диапазона 100.0 %
CRC копии 1D6EC53D
Копирование... OK
Ошибок не произошло
AccurateRip: сводка
Трек 1 нет в базе данных
Трек 2 нет в базе данных
Трек 3 нет в базе данных
Трек 4 нет в базе данных
Трек 5 нет в базе данных
Трек 6 нет в базе данных
Трек 7 нет в базе данных
Трек 8 нет в базе данных
Трек 9 нет в базе данных
Трек 10 нет в базе данных
Трек 11 нет в базе данных
Трек 12 нет в базе данных
Трек 13 нет в базе данных
Трек 14 нет в базе данных
Ни одного трека нет в базе AccurateRip
Конец отчёта

Azzurro

1. Una carezza in un pugno
(текст Luciano Beretta и Miki Del Prete; музыка Gino Santercole)
2. 30 donne del west
(текст Luciano Beretta и Miki Del Prete; музыка Adriano Celentano)
3. Canzone
(текст Don Backy; музыка Detto Mariano и Don Backy)
4. Eravamo in 100.000
(текст Luciano Beretta и Miki Del Prete; музыка Adriano Celentano)
5. Torno sui miei passi
(текст Luciano Beretta и Miki Del Prete; музыка Adriano Celentano)
6. La lotta dell’amore
(текст Luciano Beretta и Miki Del Prete; музыка Gino Santercole)
7. Azzurro
(текст Vito Pallavicini; музыка Paolo Conte и Michele Virano)
8. Pi? forte che puoi
(текст Luciano Beretta и Miki Del Prete; музыка Ico Cerutti)
9. Tre passi avanti
(текст Luciano Beretta и Miki Del Prete; музыка Adriano Celentano)
10. Un bimbo sul leone
(текст Luciano Beretta и Miki Del Prete; музыка Gino Santercole)
11. Buonasera signorina
(текст musica di Carl Sigman и Peter De Rose)
12. La coppia pi? bella del mondo
(текст Luciano Beretta и Miki Del Prete; музыка Paolo Conte и Michele Virano)

EAC

Exact Audio Copy V0.99 prebeta 4 from 23. January 2008
EAC extraction logfile from 26. December 2008, 15:57
Adriano Celentano / Azzurro
Used drive : TSSTcorpCDDVDW SH-S203B Adapter: 6 ID: 0
Read mode : Secure
Utilize accurate stream : Yes
Defeat audio cache : Yes
Make use of C2 pointers : No
Read offset correction : 6
Overread into Lead-In and Lead-Out : No
Fill up missing offset samples with silence : Yes
Delete leading and trailing silent blocks : No
Null samples used in CRC calculations : Yes
Used interface : Installed external ASPI interface
Used output format : User Defined Encoder
Selected bitrate : 1024 kBit/s
Quality : High
Add ID3 tag : No
Command line compressor : C:\Program Files\FLAC\flac.exe
Additional command line options : -8 -V -T "ARTIST=%a" -T "TITLE=%t" -T "ALBUM=%g" -T "DATE=%y" -T "TRACKNUMBER=%n" -T "GENRE=%m" -T "COMMENT=%e" %s -o %d
TOC of the extracted CD
Track | Start | Length | Start sector | End sector
---------------------------------------------------------
1 | 0:00.00 | 2:58.02 | 0 | 13351
2 | 2:58.02 | 3:22.08 | 13352 | 28509
3 | 6:20.10 | 2:43.70 | 28510 | 40804
4 | 9:04.05 | 2:27.20 | 40805 | 51849
5 | 11:31.25 | 3:15.07 | 51850 | 66481
6 | 14:46.32 | 2:23.58 | 66482 | 77264
7 | 17:10.15 | 3:42.65 | 77265 | 93979
8 | 20:53.05 | 2:50.10 | 93980 | 106739
9 | 23:43.15 | 3:49.65 | 106740 | 123979
10 | 27:33.05 | 3:37.62 | 123980 | 140316
11 | 31:10.67 | 3:16.53 | 140317 | 155069
12 | 34:27.45 | 3:02.27 | 155070 | 168746
Range status and errors
Selected range
Filename C:\uTorrent\CD\Adriano Celentano\Adriano Celentano - Azzurro\Adriano Celentano - Azzurro.wav
Peak level 82.8 %
Range quality 100.0 %
Copy CRC 048C90C9
Copy OK
No errors occurred
AccurateRip summary
Track 1 not present in database
Track 2 not present in database
Track 3 not present in database
Track 4 not present in database
Track 5 not present in database
Track 6 not present in database
Track 7 not present in database
Track 8 not present in database
Track 9 not present in database
Track 10 not present in database
Track 11 not present in database
Track 12 not present in database
None of the tracks are present in the AccurateRip database
End of status report

Adriano Rock

1. L’attore
2. Non ci fate caso
3. Come farai (исполняет Клаудиа Мори)
4. La tana del re
5. Tutto da mia madre
6. Napoleone, il cowboy e lo zar
7. Il grande Sarto
8. L’ora del boogie
9. Il filo di Arianna
10. Miseria nera

EAC

Exact Audio Copy V0.99 prebeta 5 from 4. May 2009
Отчёт EAC об извлечении, выполненном 22. сентября 2009, 8:40
Adriano Celentano / Adriano Rock
Дисковод: PLEXTOR CD-R PX-W4824A Adapter: 0 ID: 0
Режим чтения : Достоверность
Использование точного потока : Да
Отключение кэша аудио : Да
Использование указателей C2 : Нет
Коррекция смещения при чтении : 98
Способность читать области Lead-in и Lead-out : Да
Заполнение пропущенных сэмплов тишиной : Да
Удаление блоков с тишиной в начале и конце : Нет
При вычислениях CRC использовались нулевые сэмплы : Да
Интерфейс : Встроенный Win32-интерфейс для Win NT/2000
Выходной формат : Пользовательский кодировщик
Выбранный битрейт : 1024 kBit/s
Качество : Высокий
Добавление ID3-тэга : Нет
Утилита сжатия : C:\Program Files\Exact Audio Copy\Flac\flac.exe
Дополнительные параметры : -8 -V %s -o %d
TOC извлечённого CD
Трек | Старт | Длительность | Начальный сектор | Конечный сектор
---------------------------------------------------------------------
1 | 0:00.00 | 2:59.00 | 0 | 13424
2 | 2:59.00 | 2:34.00 | 13425 | 24974
3 | 5:33.00 | 2:48.45 | 24975 | 37619
4 | 8:21.45 | 2:10.43 | 37620 | 47412
5 | 10:32.13 | 2:40.62 | 47413 | 59474
6 | 13:13.00 | 2:48.13 | 59475 | 72087
7 | 16:01.13 | 3:12.62 | 72088 | 86549
8 | 19:14.00 | 2:14.00 | 86550 | 96599
9 | 21:28.00 | 2:25.00 | 96600 | 107474
10 | 23:53.00 | 2:24.38 | 107475 | 118312
Характеристики диапазона извлечения и сообщения об ошибках
Выбранный диапазон
Имя файла D:\Музыка\Adriano Celentano\1968 - Adriano Rock\Adriano Celentano - Adriano Rock.wav
Пиковый уровень 100.0 %
Качество диапазона 100.0 %
CRC копии 7DE22041
Копирование... OK
Ошибок не произошло
AccurateRip: сводка
Трек 1 нет в базе данных
Трек 2 нет в базе данных
Трек 3 нет в базе данных
Трек 4 нет в базе данных
Трек 5 нет в базе данных
Трек 6 нет в базе данных
Трек 7 нет в базе данных
Трек 8 нет в базе данных
Трек 9 нет в базе данных
Трек 10 нет в базе данных
Ни одного трека нет в базе AccurateRip
Конец отчёта

Le robe che ha detto Adriano

1. Lirica d’inverno
(текст Luciano Beretta и Miki Del Prete; музыка Adriano Celentano)
2. Un bimbo sul leone
(текст Luciano Beretta и Miki Del Prete; музыка Gino Santercole)
3. Chi era lui
(текст Mogol и Miki Del Prete; музыка Paolo Conte)
4. La storia di Serafino
(текст Luciano Beretta и Miki Del Prete; музыка Adriano Celentano и Carlo Rustichelli)
5. Straordinariamente
(текст Luciano Beretta; музыка Gino Santercole)
6. Il ragazzo della via Gluck
(текст Luciano Beretta и Miki Del Prete; музыка Adriano Celentano)
7. Storia d’amore
(текст Luciano Beretta и Miki Del Prete; музыка Adriano Celentano)
8.Napoleone, il cowboy e lo zar
(текст Luciano Beretta и Miki Del Prete; музыка Dickie Thompson и Rusty Keefer)
9. Una festa sui prati
(текст Mogol, Luciano Beretta и Miki Del Prete; музыка Adriano Celentano)
10. Mondo in mi 7a
(текст Mogol, Luciano Beretta и Miki Del Prete; музыка Adriano Celentano)
11. L’uomo nasce nudo
(текст Luciano Beretta и Miki Del Prete; музыка Roberto Negri и Giuseppe Verdecchia)
12. La pelle
(текст Luciano Beretta и Miki Del Prete; музыка Gino Santercole)

EAC

EAC extraction logfile from 13. February 2007, 15:03 for CD
Adriano Celentano / Le Robe che ha detto Adriano
Used drive : _NEC DVD_RW ND-4551A Adapter: 0 ID: 0
Read mode : Secure with NO C2, accurate stream, disable cache
Read offset correction : 48
Overread into Lead-In and Lead-Out : No
Used output format : Monkey's Audio Lossless Encoder v3.99 DLL
High Lossless Compression
Other options :
Fill up missing offset samples with silence : Yes
Delete leading and trailing silent blocks : No
Installed external ASPI interface
Range status and errors
Selected range
Filename E:\LossLess\Adriano Celentano - 1969 - Le Robe Che Ha Detto Adriano\CDImage.ape
Peak level 99.9 %
Range quality 99.9 %
CRC 69140FCA
Copy OK
No errors occured
End of status report

Il forestiero

1. Il forestiero
2. Cosa fai questa sera
3. Addormentarmi cos?
4. Stivali e colbacco
5. Brutta
6. Tu scendi dalle stelle
7. Bianco natale
8. Santa notte
9. Natale '70
10. Jingle Bells
11. Bambini miei

EAC

Exact Audio Copy V0.99 prebeta 5 from 4. May 2009
Отчёт EAC об извлечении, выполненном 22. сентября 2009, 23:05
Adriano Celentano / Il Forestiero
Дисковод: PLEXTOR CD-R PX-W4824A Adapter: 0 ID: 0
Режим чтения : Достоверность
Использование точного потока : Да
Отключение кэша аудио : Да
Использование указателей C2 : Нет
Коррекция смещения при чтении : 98
Способность читать области Lead-in и Lead-out : Да
Заполнение пропущенных сэмплов тишиной : Да
Удаление блоков с тишиной в начале и конце : Нет
При вычислениях CRC использовались нулевые сэмплы : Да
Интерфейс : Встроенный Win32-интерфейс для Win NT/2000
Выходной формат : Пользовательский кодировщик
Выбранный битрейт : 1024 kBit/s
Качество : Высокий
Добавление ID3-тэга : Нет
Утилита сжатия : C:\Program Files\Exact Audio Copy\Flac\flac.exe
Дополнительные параметры : -8 -V %s -o %d
TOC извлечённого CD
Трек | Старт | Длительность | Начальный сектор | Конечный сектор
---------------------------------------------------------------------
1 | 0:00.00 | 3:36.74 | 0 | 16273
2 | 3:36.74 | 2:17.10 | 16274 | 26558
3 | 5:54.09 | 2:58.17 | 26559 | 39925
4 | 8:52.26 | 2:10.34 | 39926 | 49709
5 | 11:02.60 | 4:55.26 | 49710 | 71860
6 | 15:58.11 | 3:31.69 | 71861 | 87754
7 | 19:30.05 | 2:59.51 | 87755 | 101230
8 | 22:29.56 | 3:40.62 | 101231 | 117792
9 | 26:10.43 | 3:15.60 | 117793 | 132477
10 | 29:26.28 | 2:27.68 | 132478 | 143570
Характеристики диапазона извлечения и сообщения об ошибках
Выбранный диапазон
Имя файла D:\Музыка\Adriano Celentano\1970 - Il Forestiero\Adriano Celentano - Il Forestiero.wav
Пиковый уровень 100.0 %
Качество диапазона 100.0 %
CRC копии 81FBF08A
Копирование... OK
Ошибок не произошло
AccurateRip: сводка
Трек 1 нет в базе данных
Трек 2 нет в базе данных
Трек 3 нет в базе данных
Трек 4 нет в базе данных
Трек 5 нет в базе данных
Трек 6 нет в базе данных
Трек 7 нет в базе данных
Трек 8 нет в базе данных
Трек 9 нет в базе данных
Трек 10 нет в базе данных
Ни одного трека нет в базе AccurateRip
Конец отчёта

I mali del secolo

1. Ready Teddy
2. Un albero di trenta piani
3. Forse eri meglio di lei
4. La ballata di Pinocchio
5. Disse
6. La siringhetta
7. L’ultimo degli uccelli
8. Quel signore del piano di sopra

EAC

xact Audio Copy V1.0 beta 1 from 15. November 2010
Отчёт EAC об извлечении, выполненном 9. марта 2011, 11:14
Adriano Celentano / I Mali del Secolo
Дисковод: SONY DVD RW DW-G120A Adapter: 0 ID: 1
Режим чтения : Достоверность
Использование точного потока : Да
Отключение кэша аудио : Да
Использование указателей C2 : Нет
Коррекция смещения при чтении : 6
Способность читать области Lead-in и Lead-out : Нет
Заполнение пропущенных сэмплов тишиной : Да
Удаление блоков с тишиной в начале и конце : Нет
При вычислениях CRC использовались нулевые сэмплы : Да
Интерфейс : Встроенный Win32-интерфейс для Win NT/2000
Выходной формат : Внутренние WAV-операции
Формат сэмплов : 44.100 Гц; 16 бит; стерео
TOC извлечённого CD
Трек | Старт | Длительность | Начальный сектор | Конечный сектор
---------------------------------------------------------------------
1 | 0:00.00 | 3:07.22 | 0 | 14046
2 | 3:07.22 | 4:04.38 | 14047 | 32384
3 | 7:11.60 | 5:27.62 | 32385 | 56971
4 | 12:39.47 | 6:46.67 | 56972 | 87488
5 | 19:26.39 | 4:23.25 | 87489 | 107238
6 | 23:49.64 | 4:39.58 | 107239 | 128221
7 | 28:29.47 | 4:50.10 | 128222 | 149981
8 | 33:19.57 | 5:18.55 | 149982 | 173886
Характеристики диапазона извлечения и сообщения об ошибках
Выбранный диапазон
Имя файла E:\Музыка\Adriano Celentano - I Mali del Secolo.wav
Пиковый уровень 99.9 %
Скорость извлечения 0.3 X
Качество диапазона 99.9 %
CRC копии D851440E
Копирование... OK
Ошибок не произошло
AccurateRip: сводка
Трек 1 отсутствует в базе данных
Трек 2 отсутствует в базе данных
Трек 3 отсутствует в базе данных
Трек 4 отсутствует в базе данных
Трек 5 отсутствует в базе данных
Трек 6 отсутствует в базе данных
Трек 7 отсутствует в базе данных
Трек 8 отсутствует в базе данных
Ни одного трека нет в базе AccurateRip
Конец отчёта
==== Контрольная сумма отчёта E81B028554B09DBA10BAAB1EEF88E8AB17763F974942E98F8A18F5A7D92784E2 ====

Nostalrock

1. Pennsylvania 65000
2. Prisencolinensinainciusol
3. Sul cappello (фрагмент)
4. Send me some lovin'
5. Guitar boogie (фрагмент 1)
6. Only you
7. Guitar boogie (фрагмент 2)
8. Lotta lovin' (фрагмент)
9. I will drink the wine
10. Tutti frutti
11. In the mood (фрагмент)
12. We’re gonna move
13. Cry
14. Di qua e di l? del Piave (фрагмент)
15. Be bop a lula
16. Shake rattle and roll

EAC

Exact Audio Copy V0.99 prebeta 4 from 23. January 2008
Отчёт EAC об извлечении, выполненном 14. января 2009, 14:23
Adriano Celentano / Nostal Rock
Дисковод: _NEC DVD+-RW ND-6650A Adapter: 0 ID: 1
Режим чтения : Достоверность
Использование точного потока : Да
Отключение кэша аудио : Да
Использование указателей C2 : Нет
Коррекция смещения при чтении : 48
Способность читать области Lead-in и Lead-out : Нет
Заполнение пропущенных сэмплов тишиной : Да
Удаление блоков с тишиной в начале и конце : Нет
При вычислениях CRC использовались нулевые сэмплы : Да
Интерфейс : Установленный внешний ASPI-интерфейс
Выходной формат : Пользовательский кодировщик
Выбранный битрейт : 1024 kBit/s
Качество : Высокий
Добавление ID3-тэга : Нет
Утилита сжатия : C:\Program Files\Exact Audio Copy\FLAC\FLAC.EXE
Дополнительные параметры : -6 -V -T "ARTIST=%a" -T "TITLE=%t" -T "ALBUM=%g" -T "DATE=%y" -T "TRACKNUMBER=%n" -T "GENRE=%m" -T "COMMENT=%e" %s -o %d
TOC извлечённого CD
Трек | Старт | Длительность | Начальный сектор | Конечный сектор
---------------------------------------------------------------------
1 | 0:00.00 | 1:00.33 | 0 | 4532
2 | 1:00.33 | 3:16.70 | 4533 | 19302
3 | 4:17.28 | 0:35.67 | 19303 | 21994
4 | 4:53.20 | 2:20.20 | 21995 | 32514
5 | 7:13.40 | 0:52.13 | 32515 | 36427
6 | 8:05.53 | 3:01.05 | 36428 | 50007
7 | 11:06.58 | 1:01.02 | 50008 | 54584
8 | 12:07.60 | 2:42.48 | 54585 | 66782
9 | 14:50.33 | 3:31.60 | 66783 | 82667
10 | 18:22.18 | 2:33.37 | 82668 | 94179
11 | 20:55.55 | 1:00.60 | 94180 | 98739
12 | 21:56.40 | 2:29.70 | 98740 | 109984
13 | 24:26.35 | 3:02.55 | 109985 | 123689
14 | 27:29.15 | 0:35.28 | 123690 | 126342
15 | 28:04.43 | 3:41.55 | 126343 | 142972
16 | 31:46.23 | 6:25.32 | 142973 | 171879
Характеристики диапазона извлечения и сообщения об ошибках
Выбранный диапазон
Имя файла \\Vidnoe\public\Раздачи\Adriano Celentano - Nostal Rock\Adriano Celentano - Nostal Rock.wav
Пиковый уровень 87.1 %
Качество диапазона 100.0 %
CRC копии E9803DCD
Копирование... OK
Ошибок не произошло
AccurateRip: сводка
Трек 1 нет в базе данных
Трек 2 нет в базе данных
Трек 3 нет в базе данных
Трек 4 нет в базе данных
Трек 5 нет в базе данных
Трек 6 нет в базе данных
Трек 7 нет в базе данных
Трек 8 нет в базе данных
Трек 9 нет в базе данных
Трек 10 нет в базе данных
Трек 11 нет в базе данных
Трек 12 нет в базе данных
Трек 13 нет в базе данных
Трек 14 нет в базе данных
Трек 15 нет в базе данных
Трек 16 нет в базе данных
Ни одного трека нет в базе AccurateRip
Конец отчёта

Svalutation

1. I want to know (часть 1)
2. Svalutation
3. La camera «21»
4. La neve
5. Uomo macchina
6. La barca
7. Ricordo
8. I want to know (часть 2)

EAC

Exact Audio Copy V0.99 prebeta 5 from 4. May 2009
Отчёт EAC об извлечении, выполненном 25. августа 2010, 11:52
Adriano Celentano / Svalutation
Дисковод: SONY DVD RW DRX-S70U Adapter: 1 ID: 0
Режим чтения : Достоверность
Использование точного потока : Да
Отключение кэша аудио : Да
Использование указателей C2 : Нет
Коррекция смещения при чтении : 48
Способность читать области Lead-in и Lead-out : Нет
Заполнение пропущенных сэмплов тишиной : Да
Удаление блоков с тишиной в начале и конце : Нет
При вычислениях CRC использовались нулевые сэмплы : Да
Интерфейс : Встроенный Win32-интерфейс для Win NT/2000
Выходной формат : Пользовательский кодировщик
Выбранный битрейт : 768 kBit/s
Качество : Высокий
Добавление ID3-тэга : Нет
Утилита сжатия : H:\Program Files\Exact Audio Copy\Flac\flac.exe
Дополнительные параметры : -6 -V -T "ARTIST=%a" -T "TITLE=%t" -T "ALBUM=%g" -T "DATE=%y" -T "TRACKNUMBER=%n" -T "GENRE=%m" -T "COMMENT=%e" %s -o %d
TOC извлечённого CD
Трек | Старт | Длительность | Начальный сектор | Конечный сектор
---------------------------------------------------------------------
1 | 0:00.00 | 2:50.45 | 0 | 12794
2 | 2:50.45 | 3:07.57 | 12795 | 26876
3 | 5:58.27 | 5:26.63 | 26877 | 51389
4 | 11:25.15 | 7:01.60 | 51390 | 83024
5 | 18:27.00 | 3:44.50 | 83025 | 99874
6 | 22:11.50 | 4:43.55 | 99875 | 121154
7 | 26:55.30 | 4:08.10 | 121155 | 139764
8 | 31:03.40 | 5:21.07 | 139765 | 163846
Характеристики диапазона извлечения и сообщения об ошибках
Выбранный диапазон
Имя файла F:\Adriano Celentano\Svalutation\Adriano Celentano - Svalutation.wav
Пиковый уровень 98.8 %
Качество диапазона 99.9 %
CRC теста 04DF93DB
CRC копии 04DF93DB
Копирование... OK
Ошибок не произошло
AccurateRip: сводка
Трек 1 нет в базе данных
Трек 2 нет в базе данных
Трек 3 нет в базе данных
Трек 4 нет в базе данных
Трек 5 нет в базе данных
Трек 6 нет в базе данных
Трек 7 нет в базе данных
Трек 8 нет в базе данных
Ни одного трека нет в базе AccurateRip
Конец отчёта

Disco dance

1. Azzurro
2. A woman in love — Rock around the clock
3. Pregher?
4. Ma che freddo stasera — (Such a cold night tonight)
5. Don’t play that song (you lied)
6. Nata per me
7. Bei tempi
8. Mondo in Mi 7a

EAC

Exact Audio Copy V0.99 prebeta 5 from 4. May 2009
Отчёт EAC об извлечении, выполненном 25. августа 2010, 9:44
Adriano Celentano / Disco Dance
Дисковод: SONY DVD RW DRX-S70U Adapter: 1 ID: 0
Режим чтения : Достоверность
Использование точного потока : Да
Отключение кэша аудио : Да
Использование указателей C2 : Нет
Коррекция смещения при чтении : 48
Способность читать области Lead-in и Lead-out : Нет
Заполнение пропущенных сэмплов тишиной : Да
Удаление блоков с тишиной в начале и конце : Нет
При вычислениях CRC использовались нулевые сэмплы : Да
Интерфейс : Встроенный Win32-интерфейс для Win NT/2000
Обработка зазоров : Добавлено к предыдущему треку
Выходной формат : Пользовательский кодировщик
Выбранный битрейт : 768 kBit/s
Качество : Высокий
Добавление ID3-тэга : Нет
Утилита сжатия : H:\Program Files\Exact Audio Copy\Flac\flac.exe
Дополнительные параметры : -6 -V -T "ARTIST=%a" -T "TITLE=%t" -T "ALBUM=%g" -T "DATE=%y" -T "TRACKNUMBER=%n" -T "GENRE=%m" -T "COMMENT=%e" %s -o %d
TOC извлечённого CD
Трек | Старт | Длительность | Начальный сектор | Конечный сектор
---------------------------------------------------------------------
1 | 0:00.00 | 1:16.43 | 0 | 5742
2 | 1:16.43 | 4:03.55 | 5743 | 24022
3 | 5:20.23 | 5:34.07 | 24023 | 49079
4 | 10:54.30 | 7:54.35 | 49080 | 84664
5 | 18:48.65 | 5:10.58 | 84665 | 107972
6 | 23:59.48 | 4:33.45 | 107973 | 128492
7 | 28:33.18 | 1:08.15 | 128493 | 133607
8 | 29:41.33 | 5:32.52 | 133608 | 158559
Трек 1
Имя файла F:\Adriano Celentano\Disco Dance\[01]Azzurro.wav
Длина предзазора 0:00:02.00
Пиковый уровень 70.1 %
Качество трека 100.0 %
CRC теста 4B935968
CRC копии 4B935968
Точное извлечение (достоверность 2) [193F6941]
Копирование... OK
Трек 2
Имя файла F:\Adriano Celentano\Disco Dance\[02]A Woman In Love-Rock Around The Clock.wav
Пиковый уровень 73.2 %
Качество трека 99.9 %
CRC теста 7FDECAD3
CRC копии 7FDECAD3
Точное извлечение (достоверность 2) [EE284A2D]
Копирование... OK
Трек 3
Имя файла F:\Adriano Celentano\Disco Dance\[03]Pregherт.wav
Длина предзазора 0:00:01.26
Пиковый уровень 74.7 %
Качество трека 100.0 %
CRC теста 52EC1BAD
CRC копии 52EC1BAD
Точное извлечение (достоверность 2) [4730892C]
Копирование... OK
Трек 4
Имя файла F:\Adriano Celentano\Disco Dance\[04]Ma Che Freddo Stasera (Such A Cold Night Tonight).wav
Длина предзазора 0:00:02.62
Пиковый уровень 91.4 %
Качество трека 100.0 %
CRC теста 0EE9E7C4
CRC копии 0EE9E7C4
Точное извлечение (достоверность 2) [79DD32B5]
Копирование... OK
Трек 5
Имя файла F:\Adriano Celentano\Disco Dance\[05]Don't Play That Song (You Lied).wav
Длина предзазора 0:00:02.80
Пиковый уровень 99.8 %
Качество трека 100.0 %
CRC теста FF2D19FE
CRC копии FF2D19FE
Точное извлечение (достоверность 2) [5A13A477]
Копирование... OK
Трек 6
Имя файла F:\Adriano Celentano\Disco Dance\[06]Nata Per Me.wav
Длина предзазора 0:00:02.10
Пиковый уровень 97.9 %
Качество трека 99.9 %
CRC теста 37988919
CRC копии 37988919
Точное извлечение (достоверность 2) [088718C8]
Копирование... OK
Трек 7
Имя файла F:\Adriano Celentano\Disco Dance\[07]Bei Tempi.wav
Длина предзазора 0:00:01.64
Пиковый уровень 55.1 %
Качество трека 100.0 %
CRC теста 64905760
CRC копии 64905760
Точное извлечение (достоверность 2) [B918DDE2]
Копирование... OK
Трек 8
Имя файла F:\Adriano Celentano\Disco Dance\[08]Mondo In MI 7.wav
Пиковый уровень 92.2 %
Качество трека 100.0 %
CRC теста 7CC02ACD
CRC копии 7CC02ACD
Точное извлечение (достоверность 2) [39E354D8]
Копирование... OK
Все треки извлечены точно
Ошибок не произошло
Конец отчёта

Tecadisk

1. When Love…
(Danny B. Besquet, Miki Del Prete)
2. Yes, I Do
(Danny B. Besquet, Miki Del Prete, Ronald Jackson)
3. Wartime Melodies
(Danny B. Besquet, Miki Del Prete)
4. Somebody Save Me
(Danny B. Besquet, Miki Del Prete)
5. Kiss Me Goodbye
(Danny B. Besquet, Miki Del Prete, Ronald Jackson)
6. You Can Be Happy
(Danny B. Besquet, Miki Del Prete, Ronald Jackson)

EAC

Exact Audio Copy V0.99 prebeta 5 from 4. May 2009
Отчёт EAC об извлечении, выполненном 17. сентября 2009, 20:25
Adriano Celentano / Tecadisk
Дисковод: PLEXTOR CD-R PX-W4824A Adapter: 0 ID: 0
Режим чтения : Достоверность
Использование точного потока : Да
Отключение кэша аудио : Да
Использование указателей C2 : Нет
Коррекция смещения при чтении : 98
Способность читать области Lead-in и Lead-out : Да
Заполнение пропущенных сэмплов тишиной : Да
Удаление блоков с тишиной в начале и конце : Нет
При вычислениях CRC использовались нулевые сэмплы : Да
Интерфейс : Встроенный Win32-интерфейс для Win NT/2000
Выходной формат : Пользовательский кодировщик
Выбранный битрейт : 1024 kBit/s
Качество : Высокий
Добавление ID3-тэга : Нет
Утилита сжатия : C:\Program Files\Exact Audio Copy\Flac\flac.exe
Дополнительные параметры : -8 -V %s -o %d
TOC извлечённого CD
Трек | Старт | Длительность | Начальный сектор | Конечный сектор
---------------------------------------------------------------------
1 | 0:00.00 | 6:50.55 | 0 | 30804
2 | 6:50.55 | 6:17.12 | 30805 | 59091
3 | 13:07.67 | 4:28.65 | 59092 | 79256
4 | 17:36.57 | 6:30.53 | 79257 | 108559
5 | 24:07.35 | 5:50.57 | 108560 | 134866
6 | 29:58.17 | 6:03.58 | 134867 | 162149
Характеристики диапазона извлечения и сообщения об ошибках
Выбранный диапазон
Имя файла D:\Музыка\Adriano Celentano\Adriano Celentano - Tecadisk.wav
Пиковый уровень 100.0 %
Качество диапазона 100.0 %
CRC копии 4BACE993
Копирование... OK
Ошибок не произошло
AccurateRip: сводка
Трек 1 точное извлечение (доверие 1) [EE056BFA]
Трек 2 точное извлечение (доверие 1) [5B7EB16F]
Трек 3 точное извлечение (доверие 1) [77B35270]
Трек 4 точное извлечение (доверие 1) [5634DC7E]
Трек 5 точное извлечение (доверие 1) [B7B70830]
Трек 6 точное извлечение (доверие 1) [4784D0DF]
Все треки извлечены точно
Конец отчёта

Ti avr?

1. Ti avr?
2. Se vuoi andare vai
3. Vetrina
4. Che donna
5. Lascer?
6. La moglie, l’amante, l’amica

EAC

Exact Audio Copy V0.99 prebeta 5 from 4. May 2009
Отчёт EAC об извлечении, выполненном 22. сентября 2009, 7:16
Adriano Celentano / Ti Avro'
Дисковод: PLEXTOR CD-R PX-W4824A Adapter: 0 ID: 0
Режим чтения : Достоверность
Использование точного потока : Да
Отключение кэша аудио : Да
Использование указателей C2 : Нет
Коррекция смещения при чтении : 98
Способность читать области Lead-in и Lead-out : Да
Заполнение пропущенных сэмплов тишиной : Да
Удаление блоков с тишиной в начале и конце : Нет
При вычислениях CRC использовались нулевые сэмплы : Да
Интерфейс : Встроенный Win32-интерфейс для Win NT/2000
Выходной формат : Пользовательский кодировщик
Выбранный битрейт : 1024 kBit/s
Качество : Высокий
Добавление ID3-тэга : Нет
Утилита сжатия : C:\Program Files\Exact Audio Copy\Flac\flac.exe
Дополнительные параметры : -8 -V %s -o %d
TOC извлечённого CD
Трек | Старт | Длительность | Начальный сектор | Конечный сектор
---------------------------------------------------------------------
1 | 0:00.00 | 6:47.02 | 0 | 30526
2 | 6:47.02 | 6:10.48 | 30527 | 58324
3 | 12:57.50 | 4:14.00 | 58325 | 77374
4 | 17:11.50 | 6:02.17 | 77375 | 104541
5 | 23:13.67 | 5:42.18 | 104542 | 130209
6 | 28:56.10 | 7:03.17 | 130210 | 161951
Характеристики диапазона извлечения и сообщения об ошибках
Выбранный диапазон
Имя файла D:\Музыка\Adriano Celentano\Adriano Celentano - Ti Avro'.wav
Пиковый уровень 100.0 %
Качество диапазона 100.0 %
CRC копии 7B87098A
Копирование... OK
Ошибок не произошло
AccurateRip: сводка
Трек 1 точное извлечение (доверие 1) [4831819F]
Трек 2 точное извлечение (доверие 1) [27D8A632]
Трек 3 точное извлечение (доверие 1) [991DFDD8]
Трек 4 точное извлечение (доверие 1) [72809938]
Трек 5 точное извлечение (доверие 1) [0443FA1D]
Трек 6 точное извлечение (доверие 1) [C42D68CD]
Все треки извлечены точно
Конец отчёта

Soli

1. Soli
2. People
3. Pay, pay, pay
4. Io e te
5. Amore no
6. Non ?
7. Stivali e colbacco
8. Medley
9. Qua la mano

EAC

Exact Audio Copy V0.99 prebeta 3 from 28. July 2007
EAC extraction logfile from 11. March 2008, 18:04
Adriano Celentano / Soli
Used drive : TSSTcorpCDDVDW SH-S203B Adapter: 6 ID: 0
Read mode : Secure
Utilize accurate stream : Yes
Defeat audio cache : Yes
Make use of C2 pointers : No
Read offset correction : 6
Overread into Lead-In and Lead-Out : No
Fill up missing offset samples with silence : Yes
Delete leading and trailing silent blocks : No
Null samples used in CRC calculations : Yes
Used interface : Installed external ASPI interface
Used output format : Monkey's Audio Lossless Encoder
Selected bitrate : Fast Lossless Compression
Quality : High
Add ID3 tag : No
Command line compressor : C:\Program Files\Monkey's Audio\MAC.exe
Additional command line options : -6 -V -T "ARTIST=%a" -T "TITLE=%t" -T "ALBUM=%g" -T "DATE=%y" -T "TRACKNUMBER=%n" -T "GENRE=%m" -T "COMMENT=%e" %s -o %d
TOC of the extracted CD
Track | Start | Length | Start sector | End sector
---------------------------------------------------------
1 | 0:00.00 | 4:02.65 | 0 | 18214
2 | 4:02.65 | 5:23.27 | 18215 | 42466
3 | 9:26.17 | 4:18.53 | 42467 | 61869
4 | 13:44.70 | 5:13.07 | 61870 | 85351
5 | 18:58.02 | 5:13.00 | 85352 | 108826
6 | 24:11.02 | 4:18.13 | 108827 | 128189
7 | 28:29.15 | 4:15.65 | 128190 | 147379
8 | 32:45.05 | 3:51.55 | 147380 | 164759
9 | 36:36.60 | 4:01.22 | 164760 | 182856
Range status and errors
Selected range
Filename C:\uTorrent\CD\Adriano Celentano - Soli\Adriano Celentano - Soli.wav
Peak level 100.0 %
Range quality 100.0 %
Copy CRC 510DE820
Copy OK
No errors occurred
AccurateRip summary
Track 1 not present in database
Track 2 not present in database
Track 3 not present in database
Track 4 not present in database
Track 5 not present in database
Track 6 not present in database
Track 7 not present in database
Track 8 not present in database
Track 9 not present in database
None of the tracks are present in the AccurateRip database
End of status report

Un po’ artista un po’ no

1. Un po' artista un po' no
2. L’orologio
3. Manifesto
4. Il tempo se ne va
5. Una parola non ci scappa mai
6. Non se ne parla nemmeno
7. Se non ? amore
8. Spettabile signore

EAC

Exact Audio Copy V0.99 prebeta 4 from 23. January 2008
EAC extraction logfile from 11. May 2008, 9:54
Adreano Celentano / Un Po? Artista Un Po?no
Used drive : TSSTcorpCDDVDW SH-S203B Adapter: 6 ID: 0
Read mode : Secure
Utilize accurate stream : Yes
Defeat audio cache : Yes
Make use of C2 pointers : No
Read offset correction : 6
Overread into Lead-In and Lead-Out : No
Fill up missing offset samples with silence : Yes
Delete leading and trailing silent blocks : No
Null samples used in CRC calculations : Yes
Used interface : Installed external ASPI interface
Used output format : Monkey's Audio Lossless Encoder
Selected bitrate : Fast Lossless Compression
Quality : High
Add ID3 tag : No
Command line compressor : C:\Program Files\Monkey's Audio\MAC.exe
TOC of the extracted CD
Track | Start | Length | Start sector | End sector
---------------------------------------------------------
1 | 0:00.00 | 4:59.12 | 0 | 22436
2 | 4:59.12 | 4:44.68 | 22437 | 43804
3 | 9:44.05 | 4:38.02 | 43805 | 64656
4 | 14:22.07 | 3:50.38 | 64657 | 81944
5 | 18:12.45 | 4:20.60 | 81945 | 101504
6 | 22:33.30 | 4:15.35 | 101505 | 120664
7 | 26:48.65 | 4:19.72 | 120665 | 140161
8 | 31:08.62 | 3:04.33 | 140162 | 153994
Range status and errors
Selected range
Filename C:\uTorrent\CD\Adreano Celentano - Un Po? Artista Un Po?no\Adreano Celentano - Un Po? Artista Un Po?no.wav
Peak level 99.9 %
Range quality 100.0 %
Copy CRC 4370F008
Copy OK
No errors occurred
AccurateRip summary
Track 1 not present in database
Track 2 not present in database
Track 3 not present in database
Track 4 not present in database
Track 5 not present in database
Track 6 not present in database
Track 7 not present in database
Track 8 not present in database
None of the tracks are present in the AccurateRip database
End of status report

Deus

1. Deus
2. Mi fanno ridere
3. Crazy Movies
4. Quando
5. L’artigiano
6. L’estate ? gi? qua
7. Dove vai Jack?
8. L’ora del rock

EAC

Exact Audio Copy V0.99 prebeta 4 from 23. January 2008
EAC extraction logfile from 30. September 2008, 17:58
Adriano Celentano / Deus 1981
Used drive : TSSTcorpCDDVDW SH-S203B Adapter: 6 ID: 0
Read mode : Secure
Utilize accurate stream : Yes
Defeat audio cache : Yes
Make use of C2 pointers : No
Read offset correction : 6
Overread into Lead-In and Lead-Out : No
Fill up missing offset samples with silence : Yes
Delete leading and trailing silent blocks : No
Null samples used in CRC calculations : Yes
Used interface : Installed external ASPI interface
Used output format : User Defined Encoder
Selected bitrate : 1024 kBit/s
Quality : High
Add ID3 tag : No
Command line compressor : C:\Program Files\FLAC\flac.exe
Additional command line options : -8 -V -T "ARTIST=%a" -T "TITLE=%t" -T "ALBUM=%g" -T "DATE=%y" -T "TRACKNUMBER=%n" -T "GENRE=%m" -T "COMMENT=%e" %s -o %d
TOC of the extracted CD
Track | Start | Length | Start sector | End sector
---------------------------------------------------------
1 | 0:00.00 | 5:41.10 | 0 | 25584
2 | 5:41.10 | 4:22.70 | 25585 | 45304
3 | 10:04.05 | 2:19.10 | 45305 | 55739
4 | 12:23.15 | 3:45.27 | 55740 | 72641
5 | 16:08.42 | 7:12.15 | 72642 | 105056
6 | 23:20.57 | 2:35.15 | 105057 | 116696
7 | 25:55.72 | 3:22.43 | 116697 | 131889
8 | 29:18.40 | 2:21.70 | 131890 | 142534
Range status and errors
Selected range
Filename C:\uTorrent\CD\Adriano Celentano - Deus 1981\Adriano Celentano - Deus 1981.wav
Peak level 99.9 %
Range quality 100.0 %
Copy CRC 005A6D1C
Copy OK
No errors occurred
AccurateRip summary
Track 1 not present in database
Track 2 not present in database
Track 3 not present in database
Track 4 not present in database
Track 5 not present in database
Track 6 not present in database
Track 7 not present in database
Track 8 not present in database
None of the tracks are present in the AccurateRip database
End of status report

Claudia Mori & Adriano Celentano - Storia D'amore

1. Non succredera piu
2. Un filo di pazzia
3. Hei, Hei, Hei
4. Squardo da moglie
5. Buonasera dottore
6. Che scherzo mi fai
7. La coppia piu bella dei mondo
8. Ti avro
9. Sotto le lenzuola
10. Bellissima
11. Io e te

EAC

Отчёт EAC об извлечении, выполненном 4. июля 2007, 16:07 для диска:
Claydia Mori & Adriano Celentano / Storia D'amore
Дисковод: _NEC DVD_RW ND-3550A Adapter: 1 ID: 0
Режим чтения: Достоверный (C2: нет, Точный поток: да, Отключение кэша: нет)
Комбинированное смещение чтения/записи: 48
Способность читать области Lead-in и Lead-out : Нет
Выходной формат: Monkey's Audio Lossless Encoder v3.99 DLL
High Lossless Compression
Другие параметры:
Заполнение пропущенных сэмплов тишиной : Да
Удаление блоков с тишиной в начале и конце : Нет
Встроенный Win32-интерфейс для Win NT/2000
Характеристики диапазона извлечения и сообщения об ошибках
Выбранный диапазон
Имя файла D:\Папка для заливки\Claydia Mori & Adriano Celentano - Storia D'amore.ape
Пиковый уровень 96.6 %
Качество диапазона 100.0 %
CRC 76BC7BD1
Копирование... OK
Ошибок не произошло
Конец отчёта

Uh… uh…

1. Giornata nein
2. Niente di nuovo
3. Conto su di te
4. Solo
5. Uh uh
6. Jungla di citt?
7. Uomo
8. La donna di un re

EAC

Exact Audio Copy V0.99 prebeta 4 from 23. January 2008
EAC extraction logfile from 7. December 2008, 15:45
Adriano Celentano / Uh... Uh...
Used drive : TSSTcorpCDDVDW SH-S203B Adapter: 6 ID: 0
Read mode : Secure
Utilize accurate stream : Yes
Defeat audio cache : Yes
Make use of C2 pointers : No
Read offset correction : 6
Overread into Lead-In and Lead-Out : No
Fill up missing offset samples with silence : Yes
Delete leading and trailing silent blocks : No
Null samples used in CRC calculations : Yes
Used interface : Installed external ASPI interface
Used output format : User Defined Encoder
Selected bitrate : 1024 kBit/s
Quality : High
Add ID3 tag : No
Command line compressor : C:\Program Files\FLAC\flac.exe
Additional command line options : -8 -V -T "ARTIST=%a" -T "TITLE=%t" -T "ALBUM=%g" -T "DATE=%y" -T "TRACKNUMBER=%n" -T "GENRE=%m" -T "COMMENT=%e" %s -o %d
TOC of the extracted CD
Track | Start | Length | Start sector | End sector
---------------------------------------------------------
1 | 0:00.33 | 4:56.25 | 33 | 22257
2 | 4:56.58 | 5:02.00 | 22258 | 44907
3 | 9:58.58 | 4:21.25 | 44908 | 64507
4 | 14:20.08 | 4:41.25 | 64508 | 85607
5 | 19:01.33 | 5:26.00 | 85608 | 110057
6 | 24:27.33 | 4:57.00 | 110058 | 132332
7 | 29:24.33 | 4:29.00 | 132333 | 152507
8 | 33:53.33 | 3:38.00 | 152508 | 168857
Range status and errors
Selected range
Filename C:\uTorrent\CD\Adriano Celentano - Uh... Uh\Adriano Celentano - Uh... Uh....wav
Peak level 100.0 %
Range quality 100.0 %
Copy CRC 3AB09A3C
Copy OK
No errors occurred
AccurateRip summary
Track 1 not present in database
Track 2 not present in database
Track 3 not present in database
Track 4 not present in database
Track 5 not present in database
Track 6 not present in database
Track 7 not present in database
Track 8 not present in database
None of the tracks are present in the AccurateRip database
End of status report

Atmosfera

1. Atmosfera
2. Splende La Notte
3. Prima Pagina
4. Dipendera Da Te
5. Sound Di Verita
6. Bel Giovane
7. Madonna Mia
8. Cammino

EAC

Exact Audio Copy V0.99 prebeta 4 from 23. January 2008
EAC extraction logfile from 15. June 2008, 7:12
Adriano Celentano / Atmosfera
Used drive : TSSTcorpCDDVDW SH-S203B Adapter: 6 ID: 0
Read mode : Secure
Utilize accurate stream : Yes
Defeat audio cache : Yes
Make use of C2 pointers : No
Read offset correction : 6
Overread into Lead-In and Lead-Out : No
Fill up missing offset samples with silence : Yes
Delete leading and trailing silent blocks : No
Null samples used in CRC calculations : Yes
Used interface : Installed external ASPI interface
Used output format : User Defined Encoder
Selected bitrate : 1024 kBit/s
Quality : High
Add ID3 tag : No
Command line compressor : C:\Program Files\FLAC\flac.exe
Additional command line options : -8 -V -T "ARTIST=%a" -T "TITLE=%t" -T "ALBUM=%g" -T "DATE=%y" -T "TRACKNUMBER=%n" -T "GENRE=%m" -T "COMMENT=%e" %s -o %d
TOC of the extracted CD
Track | Start | Length | Start sector | End sector
---------------------------------------------------------
1 | 0:00.00 | 4:24.05 | 0 | 19804
2 | 4:24.05 | 5:21.32 | 19805 | 43911
3 | 9:45.37 | 4:23.30 | 43912 | 63666
4 | 14:08.67 | 3:52.28 | 63667 | 81094
5 | 18:01.20 | 5:31.15 | 81095 | 105934
6 | 23:32.35 | 5:06.12 | 105935 | 128896
7 | 28:38.47 | 3:59.70 | 128897 | 146891
8 | 32:38.42 | 4:03.38 | 146892 | 165154
Range status and errors
Selected range
Filename C:\uTorrent\CD\Adriano Celentano - Atmosfera\Adriano Celentano - Atmosfera.wav
Peak level 98.8 %
Range quality 100.0 %
Copy CRC 62710361
Copy OK
No errors occurred
AccurateRip summary
Track 1 not present in database
Track 2 not present in database
Track 3 not present in database
Track 4 not present in database
Track 5 not present in database
Track 6 not present in database
Track 7 not present in database
Track 8 not present in database
None of the tracks are present in the AccurateRip database
End of status report

I miei americani

1. Il contadino
2. Michelle
3. Bisogna far qualcosa
4. Sono un fallito
5. Fumo negli occhi
6. Maledetta televisione
7. Susanna
8. Questo vecchio pazzo mondo
9. Il cantante folle
10. Cara Baby
11. Sei il mio destino

EAC

Exact Audio Copy V0.99 prebeta 3 from 28. July 2007
EAC extraction logfile from 28. November 2007, 15:21
Adriano Celentano / I miei americani
Used drive : TSSTcorpCDDVDW SH-S203B Adapter: 5 ID: 0
Read mode : Secure
Utilize accurate stream : Yes
Defeat audio cache : Yes
Make use of C2 pointers : No
Read offset correction : 6
Overread into Lead-In and Lead-Out : No
Fill up missing offset samples with silence : Yes
Delete leading and trailing silent blocks : No
Null samples used in CRC calculations : No
Used interface : Installed external ASPI interface
Used output format : Monkey's Audio Lossless Encoder
Selected bitrate : Fast Lossless Compression
Quality : High
Add ID3 tag : No
Command line compressor : C:\Program Files\Monkey's Audio\MAC.exe
Additional command line options : -6 -V -T "ARTIST=%a" -T "TITLE=%t" -T "ALBUM=%g" -T "DATE=%y" -T "TRACKNUMBER=%n" -T "GENRE=%m" -T "COMMENT=%e" %s -o %d
TOC of the extracted CD
Track | Start | Length | Start sector | End sector
---------------------------------------------------------
1 | 0:00.00 | 4:10.37 | 0 | 18786
2 | 4:10.37 | 3:11.60 | 18787 | 33171
3 | 7:22.22 | 3:26.40 | 33172 | 48661
4 | 10:48.62 | 3:19.15 | 48662 | 63601
5 | 14:08.02 | 2:52.55 | 63602 | 76556
6 | 17:00.57 | 2:28.25 | 76557 | 87681
7 | 19:29.07 | 4:47.10 | 87682 | 109216
8 | 24:16.17 | 3:59.10 | 109217 | 127151
9 | 28:15.27 | 4:05.58 | 127152 | 145584
10 | 32:21.10 | 2:44.10 | 145585 | 157894
11 | 35:05.20 | 2:28.27 | 157895 | 169021
Range status and errors
Selected range
Filename C:\uTorrent\CD\Adriano Celentano - Esco di Rado e Parlo Ancora Meno\Adriano Celentano - I miei americani.wav
Peak level 98.8 %
Range quality 100.0 %
Copy CRC 1439EAAA
Copy OK
No errors occurred
AccurateRip summary
Track 1 accurately ripped (confidence 1) [4EEA40E4]
Track 2 accurately ripped (confidence 1) [FEEF44CA]
Track 3 accurately ripped (confidence 1) [328DB8A7]
Track 4 accurately ripped (confidence 1) [799D53D2]
Track 5 accurately ripped (confidence 1) [5BEC08A5]
Track 6 accurately ripped (confidence 1) [447A2DB4]
Track 7 accurately ripped (confidence 1) [A95048D0]
Track 8 accurately ripped (confidence 1) [C1E6EADF]
Track 9 accurately ripped (confidence 1) [C460D82A]
Track 10 accurately ripped (confidence 1) [24A17614]
Track 11 accurately ripped (confidence 1) [7D2EB753]
All tracks accurately ripped
End of status report

I miei americani 2

1. Veronica Verrai (Veronica You*ll Come)
2. Gelosia (Jealousy)
3. Ma Come Fa La Gente Sola (Eleanor Rigby)
4. Mi Scade (She's Got It)
5. Vivro Per Lei (My Prayer)
6. Seguiro Chi Mi Ama (It Is Love)
7. L'Ascensore (Sixteen Tons)
8. E Finita (Cry)
9. Un'Altra Ragazza (Love Me Do)
10. Credero (Crazy Love)

EAC

Exact Audio Copy V0.99 prebeta 4 from 23. January 2008
EAC extraction logfile from 4. November 2008, 16:15
Adriano Celentano / I Miei Americani tre puntini 2
Used drive : TSSTcorpCDDVDW SH-S203B Adapter: 6 ID: 0
Read mode : Secure
Utilize accurate stream : Yes
Defeat audio cache : Yes
Make use of C2 pointers : No
Read offset correction : 6
Overread into Lead-In and Lead-Out : No
Fill up missing offset samples with silence : Yes
Delete leading and trailing silent blocks : No
Null samples used in CRC calculations : Yes
Used interface : Installed external ASPI interface
Used output format : User Defined Encoder
Selected bitrate : 1024 kBit/s
Quality : High
Add ID3 tag :


Последний раз редактировалось: iksovina (2017-12-01 23:02), всего редактировалось 8 раз(а)
[Профиль]  [ЛС] 

vados

Стаж:
9 лет
Сообщений:
926

http://torrentmac.org/viewtopic.php?t=4606
=============================================
Apple MBP15
Apple MB13 White 10.7.5
Apple iBookG4 10.5.8 Раритет)
Apple iPhone 7 Plus 128Gb
[Профиль]  [ЛС] 

iksovina ®

Стаж:
2 года 10 месяцев
Сообщений:
2

I miei americani 2

1. Veronica Verrai (Veronica You*ll Come)
2. Gelosia (Jealousy)
3. Ma Come Fa La Gente Sola (Eleanor Rigby)
4. Mi Scade (She's Got It)
5. Vivro Per Lei (My Prayer)
6. Seguiro Chi Mi Ama (It Is Love)
7. L'Ascensore (Sixteen Tons)
8. E Finita (Cry)
9. Un'Altra Ragazza (Love Me Do)
10. Credero (Crazy Love)

EAC

Exact Audio Copy V0.99 prebeta 4 from 23. January 2008
EAC extraction logfile from 4. November 2008, 16:15
Adriano Celentano / I Miei Americani tre puntini 2
Used drive : TSSTcorpCDDVDW SH-S203B Adapter: 6 ID: 0
Read mode : Secure
Utilize accurate stream : Yes
Defeat audio cache : Yes
Make use of C2 pointers : No
Read offset correction : 6
Overread into Lead-In and Lead-Out : No
Fill up missing offset samples with silence : Yes
Delete leading and trailing silent blocks : No
Null samples used in CRC calculations : Yes
Used interface : Installed external ASPI interface
Used output format : User Defined Encoder
Selected bitrate : 1024 kBit/s
Quality : High
Add ID3 tag : No
Command line compressor : C:\Program Files\FLAC\flac.exe
Additional command line options : -8 -V -T "ARTIST=%a" -T "TITLE=%t" -T "ALBUM=%g" -T "DATE=%y" -T "TRACKNUMBER=%n" -T "GENRE=%m" -T "COMMENT=%e" %s -o %d
TOC of the extracted CD
Track | Start | Length | Start sector | End sector
---------------------------------------------------------
1 | 0:00.00 | 4:39.52 | 0 | 20976
2 | 4:39.52 | 4:20.30 | 20977 | 40506
3 | 9:00.07 | 3:18.45 | 40507 | 55401
4 | 12:18.52 | 3:05.08 | 55402 | 69284
5 | 15:23.60 | 2:40.45 | 69285 | 81329
6 | 18:04.30 | 3:37.42 | 81330 | 97646
7 | 21:41.72 | 2:37.65 | 97647 | 109486
8 | 24:19.62 | 3:56.33 | 109487 | 127219
9 | 28:16.20 | 2:37.42 | 127220 | 139036
10 | 30:53.62 | 3:15.60 | 139037 | 153721
Range status and errors
Selected range
Filename C:\uTorrent\CD\Adriano Celentano - I Miei Americani tre puntini 2\Adriano Celentano - I Miei Americani tre puntini 2.wav
Peak level 99.9 %
Range quality 100.0 %
Copy CRC 68152B30
Copy OK
No errors occurred
AccurateRip summary
Track 1 not present in database
Track 2 not present in database
Track 3 not present in database
Track 4 not present in database
Track 5 not present in database
Track 6 not present in database
Track 7 not present in database
Track 8 not present in database
Track 9 not present in database
Track 10 not present in database
None of the tracks are present in the AccurateRip database
End of status report

La pubblica ottusit?

La pubblica ottusit?
Dolce rompi
? ancora sabato
Fresco
L’ultimo gigante
C'? qualcosa che non va
Mi attrai
La luce del sole

EAC

Exact Audio Copy V0.99 prebeta 4 from 23. January 2008
EAC extraction logfile from 29. September 2008, 16:55
Adriano Celentano / La pubblica ottusit?
Used drive : TSSTcorpCDDVDW SH-S203B Adapter: 6 ID: 0
Read mode : Secure
Utilize accurate stream : Yes
Defeat audio cache : Yes
Make use of C2 pointers : No
Read offset correction : 6
Overread into Lead-In and Lead-Out : No
Fill up missing offset samples with silence : Yes
Delete leading and trailing silent blocks : No
Null samples used in CRC calculations : Yes
Used interface : Installed external ASPI interface
Used output format : User Defined Encoder
Selected bitrate : 1024 kBit/s
Quality : High
Add ID3 tag : No
Command line compressor : C:\Program Files\FLAC\flac.exe
Additional command line options : -8 -V -T "ARTIST=%a" -T "TITLE=%t" -T "ALBUM=%g" -T "DATE=%y" -T "TRACKNUMBER=%n" -T "GENRE=%m" -T "COMMENT=%e" %s -o %d
TOC of the extracted CD
Track | Start | Length | Start sector | End sector
---------------------------------------------------------
1 | 0:00.32 | 5:43.68 | 32 | 25824
2 | 5:44.25 | 3:57.37 | 25825 | 43636
3 | 9:41.62 | 4:22.58 | 43637 | 63344
4 | 14:04.45 | 3:15.62 | 63345 | 78031
5 | 17:20.32 | 3:57.38 | 78032 | 95844
6 | 21:17.70 | 4:59.15 | 95845 | 118284
7 | 26:17.10 | 3:30.72 | 118285 | 134106
8 | 29:48.07 | 6:08.63 | 134107 | 161769
Range status and errors
Selected range
Filename C:\uTorrent\CD\Adriano Celentano - La pubblica ottusit?\Adriano Celentano - La pubblica ottusit?.wav
Peak level 100.0 %
Range quality 100.0 %
Copy CRC FCC484FD
Copy OK
No errors occurred
AccurateRip summary
Track 1 not present in database
Track 2 not present in database
Track 3 not present in database
Track 4 not present in database
Track 5 not present in database
Track 6 not present in database
Track 7 not present in database
Track 8 not present in database
None of the tracks are present in the AccurateRip database
End of status report

Il re degli ignoranti

1. Il re degli ignoranti
2. Letto di foglie
3. L’uomo di Bagdad il cow-boy e lo zar
4. Preludio imperiale
5. La pi? migliore
6. La terza guerra mondiale
7. Preludio vento del passato
8. Fuoco
9. Buono come il pane
10. Cammino

EAC

Exact Audio Copy V0.99 prebeta 4 from 23. January 2008
EAC extraction logfile from 25. October 2008, 21:07
Adriano Celentano / Il Re Degli Ignoranti
Used drive : TSSTcorpCDDVDW SH-S203B Adapter: 6 ID: 0
Read mode : Secure
Utilize accurate stream : Yes
Defeat audio cache : Yes
Make use of C2 pointers : No
Read offset correction : 6
Overread into Lead-In and Lead-Out : No
Fill up missing offset samples with silence : Yes
Delete leading and trailing silent blocks : No
Null samples used in CRC calculations : Yes
Used interface : Installed external ASPI interface
Used output format : User Defined Encoder
Selected bitrate : 1024 kBit/s
Quality : High
Add ID3 tag : No
Command line compressor : C:\Program Files\FLAC\flac.exe
Additional command line options : -8 -V -T "ARTIST=%a" -T "TITLE=%t" -T "ALBUM=%g" -T "DATE=%y" -T "TRACKNUMBER=%n" -T "GENRE=%m" -T "COMMENT=%e" %s -o %d
TOC of the extracted CD
Track | Start | Length | Start sector | End sector
---------------------------------------------------------
1 | 0:00.00 | 6:01.67 | 0 | 27141
2 | 6:01.67 | 5:39.35 | 27142 | 52601
3 | 11:41.27 | 4:51.35 | 52602 | 74461
4 | 16:32.62 | 0:45.35 | 74462 | 77871
5 | 17:18.22 | 4:26.68 | 77872 | 97889
6 | 21:45.15 | 4:34.70 | 97890 | 118509
7 | 26:20.10 | 1:11.17 | 118510 | 123851
8 | 27:31.27 | 5:32.10 | 123852 | 148761
9 | 33:03.37 | 5:43.72 | 148762 | 174558
10 | 38:47.34 | 6:16.31 | 174559 | 202789
Range status and errors
Selected range
Filename C:\uTorrent\CD\Adriano Celentano - Il Re Degli Ignoranti\Adriano Celentano - Il Re Degli Ignoranti.wav
Peak level 100.0 %
Range quality 100.0 %
Test CRC C3454F98
Copy CRC C3454F98
Copy OK
No errors occurred
AccurateRip summary
Track 1 not present in database
Track 2 not present in database
Track 3 not present in database
Track 4 not present in database
Track 5 not present in database
Track 6 not present in database
Track 7 not present in database
Track 8 not present in database
Track 9 not present in database
Track 10 not present in database
None of the tracks are present in the AccurateRip database
End of status report

Quel punto

1. Quel punto
2. La casa dell’amore
3. Rap
4. Il seme del rap
5. Attraverso me
6. I want to know (1 часть)
7. I want to know (2 часть)
8. La trappola
9. Ja tebia liubliu
10. La camera 21
11. Uh…uh…
12. Rifugio bianco
13. Sanmatio

EAC

Exact Audio Copy V0.99 prebeta 3 from 28. July 2007
EAC extraction logfile from 17. February 2009, 17:20
Adriano Celentano / Quel Punto
Used drive : TSSTcorpCDDVDW SH-S203B Adapter: 7 ID: 0
Read mode : Secure
Utilize accurate stream : Yes
Defeat audio cache : Yes
Make use of C2 pointers : No
Read offset correction : 6
Overread into Lead-In and Lead-Out : No
Fill up missing offset samples with silence : Yes
Delete leading and trailing silent blocks : No
Null samples used in CRC calculations : Yes
Used interface : Installed external ASPI interface
Used output format : User Defined Encoder
Selected bitrate : 1024 kBit/s
Quality : High
Add ID3 tag : No
Command line compressor : C:\Program Files\FLAC\flac.exe
Additional command line options : -8 -V -T "ARTIST=%a" -T "TITLE=%t" -T "ALBUM=%g" -T "DATE=%y" -T "TRACKNUMBER=%n" -T "GENRE=%m" -T "COMMENT=%e" %s -o %d
Use compression offset : 48
TOC of the extracted CD
Track | Start | Length | Start sector | End sector
---------------------------------------------------------
1 | 0:00.00 | 5:33.58 | 0 | 25032
2 | 5:33.58 | 4:24.47 | 25033 | 44879
3 | 9:58.30 | 1:08.50 | 44880 | 50029
4 | 11:07.05 | 4:14.05 | 50030 | 69084
5 | 15:21.10 | 5:10.40 | 69085 | 92374
6 | 20:31.50 | 2:25.65 | 92375 | 103314
7 | 22:57.40 | 6:52.15 | 103315 | 134229
8 | 29:49.55 | 5:55.63 | 134230 | 160917
9 | 35:45.43 | 5:32.35 | 160918 | 185852
10 | 41:18.03 | 5:44.70 | 185853 | 211722
11 | 47:02.73 | 4:34.37 | 211723 | 232309
12 | 51:37.35 | 1:45.60 | 232310 | 240244
13 | 53:23.20 | 2:50.55 | 240245 | 253049
Range status and errors
Selected range
Filename T:\CD\Adriano Celentano\Adriano Celentano - Quel Punto\Adriano Celentano - Quel Punto.wav
Peak level 98.8 %
Range quality 99.9 %
Copy CRC 54D4C20D
Copy OK
No errors occurred
AccurateRip summary
Track 1 accurately ripped (confidence 2) [69B0CB44]
Track 2 accurately ripped (confidence 2) [4A49F214]
Track 3 accurately ripped (confidence 2) [E4092EF3]
Track 4 accurately ripped (confidence 2) [DE363ACE]
Track 5 accurately ripped (confidence 2) [A85AA5F6]
Track 6 accurately ripped (confidence 2) [76365324]
Track 7 accurately ripped (confidence 2) [C5E5343B]
Track 8 accurately ripped (confidence 2) [53F77EF4]
Track 9 accurately ripped (confidence 2) [CDAC5DD6]
Track 10 accurately ripped (confidence 2) [0B94FD01]
Track 11 accurately ripped (confidence 2) [E06F6A6A]
Track 12 accurately ripped (confidence 2) [A5CF55AB]
Track 13 accurately ripped (confidence 2) [65A6D14A]
All tracks accurately ripped
End of status report

Arrivano gli uomini

Cosi come sei
Arrivano gli uomini
Torno a settembre
Balla Con Me
Scusami
Solo da un quarto d’ora
Ti lascio vivere
Ti lascio vivere (reprise)
Vento d’estate
Cercami
La gonna e l’insalata

EAC

Exact Audio Copy V0.99 prebeta 4 from 23. January 2008
EAC extraction logfile from 7. December 2008, 15:20
Adriano Celentano / Arrivano gli uomini
Used drive : TSSTcorpCDDVDW SH-S203B Adapter: 6 ID: 0
Read mode : Secure
Utilize accurate stream : Yes
Defeat audio cache : Yes
Make use of C2 pointers : No
Read offset correction : 6
Overread into Lead-In and Lead-Out : No
Fill up missing offset samples with silence : Yes
Delete leading and trailing silent blocks : No
Null samples used in CRC calculations : Yes
Used interface : Installed external ASPI interface
Used output format : User Defined Encoder
Selected bitrate : 1024 kBit/s
Quality : High
Add ID3 tag : No
Command line compressor : C:\Program Files\FLAC\flac.exe
Additional command line options : -8 -V -T "ARTIST=%a" -T "TITLE=%t" -T "ALBUM=%g" -T "DATE=%y" -T "TRACKNUMBER=%n" -T "GENRE=%m" -T "COMMENT=%e" %s -o %d
TOC of the extracted CD
Track | Start | Length | Start sector | End sector
---------------------------------------------------------
1 | 0:00.00 | 4:52.15 | 0 | 21914
2 | 4:52.15 | 6:09.57 | 21915 | 49646
3 | 11:01.72 | 5:03.53 | 49647 | 72424
4 | 16:05.50 | 7:20.67 | 72425 | 105491
5 | 23:26.42 | 6:07.68 | 105492 | 133084
6 | 29:34.35 | 5:47.30 | 133085 | 159139
7 | 35:21.65 | 4:35.02 | 159140 | 179766
8 | 39:56.67 | 5:43.08 | 179767 | 205499
9 | 45:40.00 | 4:41.52 | 205500 | 226626
10 | 50:21.52 | 5:05.63 | 226627 | 249564
Range status and errors
Selected range
Filename C:\uTorrent\CD\Adriano Celentano - Arrivano gli uomini\Adriano Celentano - Arrivano gli uomini.wav
Peak level 99.9 %
Range quality 100.0 %
Copy CRC 96849B29
Copy OK
No errors occurred
AccurateRip summary
Track 1 not present in database
Track 2 not present in database
Track 3 not present in database
Track 4 not present in database
Track 5 not present in database
Track 6 not present in database
Track 7 not present in database
Track 8 not present in database
Track 9 not present in database
Track 10 not present in database
None of the tracks are present in the AccurateRip database
End of status report

Mina Celentano

1. Acqua e sale
(Giovanni Donzelli-Vincenzo Leomporro)
2. Brivido felino
(Stefano Cenci-Paolo Audino)
3. Io non volevo
(Adriano Celentano)
4. Specchi riflessi
(Giovanni Donzelli-Vincenzo Leomporro)
5.Dolce fuoco dell’amore
(Giulia Fasolino)
6. Che t’aggia di'
(Adriano Celentano)
7. Io ho te
(Giovanni Donzelli-Vincenzo Leomporro)
8. Dolly
(Adriano Celentano-Marco Vaccaro)
9. Sempre sempre sempre
(Luigi Albertelli-Enrico Riccardi)
10. Messaggio d’amore
(Massimiliano Pani)

EAC

Exact Audio Copy V0.99 prebeta 3 from 28. July 2007
EAC extraction logfile from 11. March 2008, 13:03
Mina - Adriano Celentano / Mina & Celentano
Used drive : TSSTcorpCDDVDW SH-S203B Adapter: 6 ID: 0
Read mode : Secure
Utilize accurate stream : Yes
Defeat audio cache : Yes
Make use of C2 pointers : No
Read offset correction : 6
Overread into Lead-In and Lead-Out : No
Fill up missing offset samples with silence : Yes
Delete leading and trailing silent blocks : No
Null samples used in CRC calculations : Yes
Used interface : Installed external ASPI interface
Used output format : Monkey's Audio Lossless Encoder
Selected bitrate : Fast Lossless Compression
Quality : High
Add ID3 tag : No
Command line compressor : C:\Program Files\Monkey's Audio\MAC.exe
Additional command line options : -6 -V -T "ARTIST=%a" -T "TITLE=%t" -T "ALBUM=%g" -T "DATE=%y" -T "TRACKNUMBER=%n" -T "GENRE=%m" -T "COMMENT=%e" %s -o %d
TOC of the extracted CD
Track | Start | Length | Start sector | End sector
---------------------------------------------------------
1 | 0:00.00 | 4:42.27 | 0 | 21176
2 | 4:42.27 | 3:44.33 | 21177 | 38009
3 | 8:26.60 | 4:08.37 | 38010 | 56646
4 | 12:35.22 | 4:59.40 | 56647 | 79111
5 | 17:34.62 | 4:39.05 | 79112 | 100041
6 | 22:13.67 | 5:09.43 | 100042 | 123259
7 | 27:23.35 | 4:54.12 | 123260 | 145321
8 | 32:17.47 | 5:35.00 | 145322 | 170446
9 | 37:52.47 | 4:46.73 | 170447 | 191969
10 | 42:39.45 | 2:36.45 | 191970 | 203714
Range status and errors
Selected range
Filename C:\uTorrent\CD\Mina - Adriano Celentano - Mina & Celentano\Mina - Adriano Celentano - Mina & Celentano.wav
Peak level 97.1 %
Range quality 100.0 %
Copy CRC 06259957
Copy OK
No errors occurred
AccurateRip summary
Track 1 not present in database
Track 2 not present in database
Track 3 not present in database
Track 4 not present in database
Track 5 not present in database
Track 6 not present in database
Track 7 not present in database
Track 8 not present in database
Track 9 not present in database
Track 10 not present in database
None of the tracks are present in the AccurateRip database
End of status report

Io non so parlar d’amore

1. Gelosia — 4:31 — (G. Bella/Mogol)
2. L'emozione non ha voce — 4:09 — (G. Bella/Mogol)
3. L'arcobaleno — 3:32 — (G. Bella/Mogol)
4. Una rosa pericolosa — 4:35 — (A. Celentano/Mogol)
5. Qual’? la direzione — 5:15 — (G. Bella/Mogol)
6. Angel — 5:09 — (M.Di Franco)
7. L'uomo di cartone — 4:27 — (G. Bella/Mogol)
8. Le pesche d'inverno — 3:50 — (G. Bella/Mogol)
9. Senza amore — 5:00 — (Carlo Mazzoni)
10. Il sospetto — 4:34 — (F.Zanotti/Mogol)
11. Mi domando — 4:18 — (G. Bella/Mogol)
12. Sarai uno straccio — 5:39 — (A. Celentano-A. Celentano/M.Vaccaro)
Exact Audio Copy V0.99 prebeta 4 from 23. January 2008
EAC extraction logfile from 7. December 2008, 12:18
Adriano Celentano / Io Non So Parlar D'Amore
Used drive : TSSTcorpCDDVDW SH-S203B Adapter: 6 ID: 0
Read mode : Secure
Utilize accurate stream : Yes
Defeat audio cache : Yes
Make use of C2 pointers : No
Read offset correction : 6
Overread into Lead-In and Lead-Out : No
Fill up missing offset samples with silence : Yes
Delete leading and trailing silent blocks : No
Null samples used in CRC calculations : Yes
Used interface : Installed external ASPI interface
Used output format : User Defined Encoder
Selected bitrate : 1024 kBit/s
Quality : High
Add ID3 tag : No
Command line compressor : C:\Program Files\FLAC\flac.exe
Additional command line options : -8 -V -T "ARTIST=%a" -T "TITLE=%t" -T "ALBUM=%g" -T "DATE=%y" -T "TRACKNUMBER=%n" -T "GENRE=%m" -T "COMMENT=%e" %s -o %d
TOC of the extracted CD
Track | Start | Length | Start sector | End sector
---------------------------------------------------------
1 | 0:00.00 | 4:31.05 | 0 | 20329
2 | 4:31.05 | 4:09.10 | 20330 | 39014
3 | 8:40.15 | 3:32.05 | 39015 | 54919
4 | 12:12.20 | 4:35.50 | 54920 | 75594
5 | 16:47.70 | 5:15.40 | 75595 | 99259
6 | 22:03.35 | 5:09.20 | 99260 | 122454
7 | 27:12.55 | 4:27.12 | 122455 | 142491
8 | 31:39.67 | 3:50.55 | 142492 | 159796
9 | 35:30.47 | 5:00.35 | 159797 | 182331
10 | 40:31.07 | 4:34.45 | 182332 | 202926
11 | 45:05.52 | 4:18.05 | 202927 | 222281
12 | 49:23.57 | 5:39.00 | 222282 | 247706
Range status and errors
Selected range
Filename C:\uTorrent\CD\Adriano Celentano - Io Non So Parlar D'Amore\Adriano Celentano - Io Non So Parlar D'Amore.wav
Peak level 100.0 %
Range quality 100.0 %
Copy CRC A9F9D79D
Copy OK
No errors occurred
AccurateRip summary
Track 1 not present in database
Track 2 not present in database
Track 3 not present in database
Track 4 not present in database
Track 5 not present in database
Track 6 not present in database
Track 7 not present in database
Track 8 not present in database
Track 9 not present in database
Track 10 not present in database
Track 11 not present in database
Track 12 not present in database
None of the tracks are present in the AccurateRip database
End of status report

Esco di rado e parlo ancora meno

1. Per averti — 5:03 — (Mogol / G. Bella)
2. Apri il cuore — 5:19 — (Mogol, Cheope / G. Bella, R. Bella)
3. Lago rosso — 5:18 — (Mogol / G. Bella)
4. Quello che non ti ho detto mai — 4:35 — (Mogol / G. Bella)
5. Ti prender? — 4:55 — (Mogol / G. Bella)
6. Tir — 4:29 — (Mogol / G. Bella, R. Bella)
7. Se tu mi tenti — 4:14 — (Mogol / G. Bella)
8. Africa — 4:36 — (Mogol / G. Bella, R. Bella)
9. Io sono un uomo libero — 5:46 — (Fossati)
10. Le stesse cose — 5:43 — (Mazzoni)
11. Il figlio del dolore — 6:25 — (Celentano / Spina)
12. Index — 4:07

EAC

Exact Audio Copy V0.99 prebeta 3 from 28. July 2007
EAC extraction logfile from 27. November 2007, 16:20
Adriano Celentano / Esco Di Rado E Parlo Ancora Meno
Used drive : TSSTcorpCDDVDW SH-S203B Adapter: 5 ID: 0
Read mode : Secure
Utilize accurate stream : Yes
Defeat audio cache : Yes
Make use of C2 pointers : No
Read offset correction : 6
Overread into Lead-In and Lead-Out : No
Fill up missing offset samples with silence : Yes
Delete leading and trailing silent blocks : No
Null samples used in CRC calculations : No
Used interface : Installed external ASPI interface
Used output format : Monkey's Audio Lossless Encoder
Selected bitrate : Fast Lossless Compression
Quality : High
Add ID3 tag : No
Command line compressor : C:\Program Files\Monkey's Audio\MAC.exe
Additional command line options : -6 -V -T "ARTIST=%a" -T "TITLE=%t" -T "ALBUM=%g" -T "DATE=%y" -T "TRACKNUMBER=%n" -T "GENRE=%m" -T "COMMENT=%e" %s -o %d
TOC of the extracted CD
Track | Start | Length | Start sector | End sector
---------------------------------------------------------
1 | 0:00.00 | 5:04.05 | 0 | 22804
2 | 5:04.05 | 5:19.65 | 22805 | 46794
3 | 10:23.70 | 5:18.70 | 46795 | 70714
4 | 15:42.65 | 4:35.02 | 70715 | 91341
5 | 20:17.67 | 4:55.48 | 91342 | 113514
6 | 25:13.40 | 4:29.05 | 113515 | 133694
7 | 29:42.45 | 4:14.62 | 133695 | 152806
8 | 33:57.32 | 4:36.10 | 152807 | 173516
9 | 38:33.42 | 5:46.63 | 173517 | 199529
10 | 44:20.30 | 5:43.12 | 199530 | 225266
11 | 50:03.42 | 6:25.25 | 225267 | 254166
12 | 56:28.67 | 4:08.03 | 254167 | 272769
Range status and errors
Selected range
Filename C:\uTorrent\CD\Adriano Celentano - Esco di Rado e Parlo Ancora Meno\Adriano Celentano - Esco Di Rado E Parlo Ancora Meno.wav
Peak level 100.0 %
Range quality 100.0 %
Copy CRC E5DBEABE
Copy OK
No errors occurred
AccurateRip summary
Track 1 not present in database
Track 2 not present in database
Track 3 not present in database
Track 4 not present in database
Track 5 not present in database
Track 6 not present in database
Track 7 not present in database
Track 8 not present in database
Track 9 not present in database
Track 10 not present in database
Track 11 not present in database
Track 12 not present in database
None of the tracks are present in the AccurateRip database
End of status report

Per sempre

1. «Confessa»
G. Bella/Mogol 5:10
2. «Mi fa male»
G. Bella/Mogol 4:49
3. «Pi? di un sogno»
G. Bella/Mogol 5:21
4. «Per sempre»
G. Bella/Mogol 5:13
5. «Una luce intermittente»
G. Bella/S. Pieroni 4:42
6. «Respiri di vita»
G. Bella/Mogol 4:13
7. «Dimenticare e ricominciare»
G. Bella/Mogol 3:45
8. «Vite»
F. Guccini 4:38
9. «Pensieri nascosti»
G. Bella/Mogol 4:27
10. «I passi che facciamo»
L. De Crescenzo/P. Leon 5:37
11. «Per vivere»
A. Celentano/Mogol 5:57
12. «Radio Chick»
G. Bella/Mogol 3:22

EAC

Exact Audio Copy V0.99 prebeta 4 from 23. January 2008
EAC extraction logfile from 7. December 2008, 12:31
Adriano Celentano / Per sempre
Used drive : TSSTcorpCDDVDW SH-S203B Adapter: 6 ID: 0
Read mode : Secure
Utilize accurate stream : Yes
Defeat audio cache : Yes
Make use of C2 pointers : No
Read offset correction : 6
Overread into Lead-In and Lead-Out : No
Fill up missing offset samples with silence : Yes
Delete leading and trailing silent blocks : No
Null samples used in CRC calculations : Yes
Used interface : Installed external ASPI interface
Used output format : User Defined Encoder
Selected bitrate : 1024 kBit/s
Quality : High
Add ID3 tag : No
Command line compressor : C:\Program Files\FLAC\flac.exe
Additional command line options : -8 -V -T "ARTIST=%a" -T "TITLE=%t" -T "ALBUM=%g" -T "DATE=%y" -T "TRACKNUMBER=%n" -T "GENRE=%m" -T "COMMENT=%e" %s -o %d
TOC of the extracted CD
Track | Start | Length | Start sector | End sector
---------------------------------------------------------
1 | 0:00.00 | 5:10.19 | 0 | 23268
2 | 5:10.19 | 4:49.27 | 23269 | 44970
3 | 9:59.46 | 5:21.09 | 44971 | 69054
4 | 15:20.55 | 5:13.09 | 69055 | 92538
5 | 20:33.64 | 4:42.59 | 92539 | 113747
6 | 25:16.48 | 4:13.26 | 113748 | 132748
7 | 29:29.74 | 3:45.26 | 132749 | 149649
8 | 33:15.25 | 4:38.33 | 149650 | 170532
9 | 37:53.58 | 4:27.68 | 170533 | 190625
10 | 42:21.51 | 5:37.41 | 190626 | 215941
11 | 47:59.17 | 5:57.28 | 215942 | 242744
12 | 53:56.45 | 3:22.70 | 242745 | 257964
Range status and errors
Selected range
Filename C:\uTorrent\CD\Adriano Celentano - Per sempre\Adriano Celentano - Per sempre.wav
Peak level 100.0 %
Range quality 99.9 %
Copy CRC B332E585
Copy OK
No errors occurred
AccurateRip summary
Track 1 accurately ripped (confidence 7) [7ACE9E0E]
Track 2 accurately ripped (confidence 7) [B223413C]
Track 3 accurately ripped (confidence 7) [6A99FB82]
Track 4 accurately ripped (confidence 7) [ED9E1F18]
Track 5 accurately ripped (confidence 7) [C07C9E4E]
Track 6 accurately ripped (confidence 7) [8CCE3D82]
Track 7 accurately ripped (confidence 7) [3C78D280]
Track 8 accurately ripped (confidence 7) [A6787E7F]
Track 9 accurately ripped (confidence 7) [1B8AD615]
Track 10 accurately ripped (confidence 7) [36DE17D4]
Track 11 accurately ripped (confidence 7) [18AFFA6C]
Track 12 accurately ripped (confidence 7) [3C53E2E1]
All tracks accurately ripped
End of status report

C’? sempre un motivo

1. L’Indiano — 3:54 — (P.Conte/G.Bella)
2. Ancora Vivo — 4:32 — (G. Bella/Mogol)
3. Mar? Mar? — 4:15 — (G. Bella/Mogol)
4. C'? Sempre Un Motivo — 5:27 — (Mazzoni)
5. Valeva La Pena — 4:10 — (Cheope, Vuletic)
6. Lunfardia — 5:03 — (R.Ferri/F.De Andr?/R.Ferri)
7. Verit? Da Marciapiede — 4:33 — (G. Bella/Mogol)
8. Quel Casinha (Il ragazzo della via Gluck) — 4:28 — (Celentano/D.Mariano/L.Beretta)
9. L’Ultima Donna Che Amo — 3:50 — (Mogol, G. Bella)
10. In Quale Vita — 4:48 — (Mogol, Celentano, G. Bella)
11. Proibito — 4:07 — (Mogol, G. Bella)
12. Vengo Dal Jazz (Bensonhurst Blues) — 3:56 — (A.Kaplan/L.Kornfeld/Celentano)

EAC

Exact Audio Copy V0.99 prebeta 4 from 23. January 2008
EAC extraction logfile from 7. December 2008, 12:54
Adriano Celentano / C'e Sempre un Motivo
Used drive : TSSTcorpCDDVDW SH-S203B Adapter: 6 ID: 0
Read mode : Secure
Utilize accurate stream : Yes
Defeat audio cache : Yes
Make use of C2 pointers : No
Read offset correction : 6
Overread into Lead-In and Lead-Out : No
Fill up missing offset samples with silence : Yes
Delete leading and trailing silent blocks : No
Null samples used in CRC calculations : Yes
Used interface : Installed external ASPI interface
Used output format : User Defined Encoder
Selected bitrate : 1024 kBit/s
Quality : High
Add ID3 tag : No
Command line compressor : C:\Program Files\FLAC\flac.exe
Additional command line options : -8 -V -T "ARTIST=%a" -T "TITLE=%t" -T "ALBUM=%g" -T "DATE=%y" -T "TRACKNUMBER=%n" -T "GENRE=%m" -T "COMMENT=%e" %s -o %d
TOC of the extracted CD
Track | Start | Length | Start sector | End sector
---------------------------------------------------------
1 | 0:00.00 | 4:33.52 | 0 | 20526
2 | 4:33.52 | 4:15.65 | 20527 | 39716
3 | 8:49.42 | 5:27.13 | 39717 | 64254
4 | 14:16.55 | 4:09.60 | 64255 | 82989
5 | 18:26.40 | 5:02.62 | 82990 | 105701
6 | 23:29.27 | 4:33.30 | 105702 | 126206
7 | 28:02.57 | 4:28.12 | 126207 | 146318
8 | 32:30.69 | 3:50.26 | 146319 | 163594
9 | 36:21.20 | 4:47.45 | 163595 | 185164
10 | 41:08.65 | 4:07.20 | 185165 | 203709
11 | 45:16.10 | 3:58.22 | 203710 | 221581
Range status and errors
Selected range
Filename C:\uTorrent\CD\Adriano Celentano - C'e Sempre un Motivo\Adriano Celentano - C'e Sempre un Motivo.wav
Peak level 99.9 %
Range quality 100.0 %
Copy CRC 4FE1B811
Copy OK
No errors occurred
AccurateRip summary
Track 1 accurately ripped (confidence 3) [CAA03564]
Track 2 accurately ripped (confidence 3) [FC64AD4E]
Track 3 accurately ripped (confidence 3) [A52948B8]
Track 4 accurately ripped (confidence 3) [ACCEDE15]
Track 5 accurately ripped (confidence 4) [59A93D30]
Track 6 accurately ripped (confidence 4) [93ABAB2F]
Track 7 accurately ripped (confidence 3) [30470A3F]
Track 8 accurately ripped (confidence 4) [3F8C1F38]
Track 9 accurately ripped (confidence 4) [4115FDF8]
Track 10 accurately ripped (confidence 3) [F937122B]
Track 11 accurately ripped (confidence 4) [41FA62D8]
All tracks accurately ripped
End of status report

Dormi amore, la situazione non ? buona

1. «Hai bucato la mia vita»
текст P.Conte; музыка G.Bella 4:58
2. «Aria… non sei pi? tu»
текст Jovanotti; музыка D.Vuletic 4:28
3. «Dormi amore»
текст P.Conte; музыка G.Bella 5:31
4. «La situazione non ? buona»
текст и музыка Francesco Tricarico 5:16
5. «Ragazzo del sud»
текст и музыка Domenico Modugno 5:34
6. «Vorrei sapere»
текст P.Conte; музыка G.Bella 4:04
7. «Anna Magnani»
текст V.Cerami; музыка C.Consoli) 4:08
8. «Fiori»
текст и музыка Neffa 3:06
9. «Fascino»
текст P.Conte; музыка G.Bella 3:54
10. «I tuoi artigli»
текст P.Conte; музыка G.Bella 2:59
11. «Extra» 4:47

EAC

EAC extraction logfile from 14. January 2009, 14:59
Adriano Celentano / DORMI AMORE la situazione non e' buona
Used drive : TSSTcorpCDDVDW SH-S203B Adapter: 6 ID: 0
Read mode : Secure
Utilize accurate stream : Yes
Defeat audio cache : Yes
Make use of C2 pointers : No
Read offset correction : 6
Overread into Lead-In and Lead-Out : No
Fill up missing offset samples with silence : Yes
Delete leading and trailing silent blocks : No
Null samples used in CRC calculations : Yes
Used interface : Installed external ASPI interface
Used output format : User Defined Encoder
Selected bitrate : 1024 kBit/s
Quality : High
Add ID3 tag : No
Command line compressor : C:\Program Files\FLAC\flac.exe
Additional command line options : -8 -V -T "ARTIST=%a" -T "TITLE=%t" -T "ALBUM=%g" -T "DATE=%y" -T "TRACKNUMBER=%n" -T "GENRE=%m" -T "COMMENT=%e" %s -o %d
TOC of the extracted CD
Track | Start | Length | Start sector | End sector
---------------------------------------------------------
1 | 0:00.00 | 4:58.50 | 0 | 22399
2 | 4:58.50 | 4:28.08 | 22400 | 42507
3 | 9:26.58 | 5:31.07 | 42508 | 67339
4 | 14:57.65 | 5:16.67 | 67340 | 91106
5 | 20:14.57 | 5:34.49 | 91107 | 116205
6 | 25:49.31 | 4:04.56 | 116206 | 134561
7 | 29:54.12 | 4:08.55 | 134562 | 153216
8 | 34:02.67 | 3:06.14 | 153217 | 167180
9 | 37:09.06 | 3:54.24 | 167181 | 184754
10 | 41:03.30 | 2:59.72 | 184755 | 198251
11 | 44:03.27 | 4:47.31 | 198252 | 219807
Range status and errors
Selected range
Filename C:\uTorrent\CD\Adriano Celentano\Adriano Celentano - DORMI AMORE\Adriano Celentano - DORMI AMORE la situazione non e' buona.wav
Peak level 100.0 %
Range quality 99.9 %
Copy CRC A10C4F3F
Copy OK
No errors occurred
AccurateRip summary
Track 1 cannot be verified as accurate (confidence 10) [656536BA], AccurateRip returned [56725E77]
Track 2 cannot be verified as accurate (confidence 10) [E87FB600], AccurateRip returned [978BA787]
Track 3 cannot be verified as accurate (confidence 10) [B2947965], AccurateRip returned [0B93D0C4]
Track 4 cannot be verified as accurate (confidence 10) [7796568F], AccurateRip returned [45210A12]
Track 5 cannot be verified as accurate (confidence 10) [0319D496], AccurateRip returned [EA918FCB]
Track 6 cannot be verified as accurate (confidence 10) [40E905EE], AccurateRip returned [A6E7AFE9]
Track 7 cannot be verified as accurate (confidence 10) [020BB60C], AccurateRip returned [520D355E]
Track 8 cannot be verified as accurate (confidence 10) [31BD889E], AccurateRip returned [121EF8AD]
Track 9 cannot be verified as accurate (confidence 10) [EDBE1FF2], AccurateRip returned [5699B1B1]
Track 10 cannot be verified as accurate (confidence 10) [277897CB], AccurateRip returned [CA84D37D]
Track 11 cannot be verified as accurate (confidence 10) [B1E5F3E0], AccurateRip returned [514E6740]
No tracks could be verified as accurate
You may have a different pressing from the one(s) in the database
End of status report

Fantastica / La mia storia…

CD 1

1. Si ? spento il sole — 02:56
2. Nata per me — 02:48
3. Il ribelle — 02:21
4. Rock matto — 01:51
5. La mezza luna — 02:31
6. Man smart [0:03:36
7. Movimento di rock — 01:52
8. Buona Sera — 02:47
9. Jailhouse rock — 02:29
10. Ritorna lo Shimmy — 01:44

EAC

Exact Audio Copy V0.99 prebeta 4 from 23. January 2008
EAC extraction logfile from 8. May 2008, 16:14
Adriano Celentano / La mia storia...
Used drive : TSSTcorpCDDVDW SH-S203B Adapter: 6 ID: 0
Read mode : Secure
Utilize accurate stream : Yes
Defeat audio cache : Yes
Make use of C2 pointers : No
Read offset correction : 6
Overread into Lead-In and Lead-Out : No
Fill up missing offset samples with silence : Yes
Delete leading and trailing silent blocks : No
Null samples used in CRC calculations : Yes
Used interface : Installed external ASPI interface
Used output format : Monkey's Audio Lossless Encoder
Selected bitrate : Fast Lossless Compression
Quality : High
Add ID3 tag : No
Command line compressor : C:\Program Files\Monkey's Audio\MAC.exe
TOC of the extracted CD
Track | Start | Length | Start sector | End sector
---------------------------------------------------------
1 | 0:00.01 | 2:56.38 | 1 | 13238
2 | 2:56.39 | 2:48.52 | 13239 | 25890
3 | 5:45.16 | 2:21.25 | 25891 | 36490
4 | 8:06.41 | 1:51.46 | 36491 | 44861
5 | 9:58.12 | 2:31.45 | 44862 | 56231
6 | 12:29.57 | 3:36.66 | 56232 | 72497
7 | 16:06.48 | 1:52.67 | 72498 | 80964
8 | 17:59.40 | 2:47.59 | 80965 | 93548
9 | 20:47.24 | 2:29.39 | 93549 | 104762
10 | 23:16.63 | 1:44.15 | 104763 | 112577
Range status and errors
Selected range
Filename C:\uTorrent\CD\Mina_Adriano Celentano - Fantastica-La mia storia\Mina_Adriano Celentano - Fantastica-La mia storia...CD1.wav
Peak level 98.0 %
Range quality 100.0 %
Copy CRC ED9D3879
Copy OK
No errors occurred
AccurateRip summary
Track 1 not present in database
Track 2 not present in database
Track 3 not present in database
Track 4 not present in database
Track 5 not present in database
Track 6 not present in database
Track 7 not present in database
Track 8 not present in database
Track 9 not present in database
Track 10 not present in database
None of the tracks are present in the AccurateRip database
End of status report

CD 2

1. E' l’uomo per me (He walks like a man) — 02:28
2. La banda (A banda) — 02:38
3. Se telefonando — 03:00
4. Valentino Vale — 02:06
5. Sono come tu mi vuoi — 03:35
6. Quando vedro' — 03:32
7. Tu non ci credi piu' — 03:12
8. Corazon — 0:03:12
9. Mi sei scoppiato dentro il cuore — 03:08
10. Io sono quel che sono — 02:14
11. L’immensita' — 02:40
12. Addio — 02:31
13. Canta ragazzina — 03:04
14. Cartoline — 01:58
15. Se mi compri un gelato — 02:03
16. E' inutile — 01:57
17. Sono qui per te — 02:57

EAC

Exact Audio Copy V0.99 prebeta 4 from 23. January 2008
EAC extraction logfile from 8. May 2008, 16:25
Mina / Fantastica
Used drive : TSSTcorpCDDVDW SH-S203B Adapter: 6 ID: 0
Read mode : Secure
Utilize accurate stream : Yes
Defeat audio cache : Yes
Make use of C2 pointers : No
Read offset correction : 6
Overread into Lead-In and Lead-Out : No
Fill up missing offset samples with silence : Yes
Delete leading and trailing silent blocks : No
Null samples used in CRC calculations : Yes
Used interface : Installed external ASPI interface
Used output format : Monkey's Audio Lossless Encoder
Selected bitrate : Fast Lossless Compression
Quality : High
Add ID3 tag : No
Command line compressor : C:\Program Files\Monkey's Audio\MAC.exe
TOC of the extracted CD
Track | Start | Length | Start sector | End sector
---------------------------------------------------------
1 | 0:00.01 | 2:28.47 | 1 | 11147
2 | 2:28.48 | 2:38.70 | 11148 | 23067
3 | 5:07.43 | 3:00.45 | 23068 | 36612
4 | 8:08.13 | 2:06.40 | 36613 | 46102
5 | 10:14.53 | 3:35.61 | 46103 | 62288
6 | 13:50.39 | 3:32.27 | 62289 | 78215
7 | 17:22.66 | 3:12.02 | 78216 | 92617
8 | 20:34.68 | 3:12.54 | 92618 | 107071
9 | 23:47.47 | 3:08.29 | 107072 | 121200
10 | 26:56.01 | 2:14.72 | 121201 | 131322
11 | 29:10.73 | 2:40.08 | 131323 | 143330
12 | 31:51.06 | 2:31.66 | 143331 | 154721
13 | 34:22.72 | 3:04.56 | 154722 | 168577
14 | 37:27.53 | 1:58.55 | 168578 | 177482
15 | 39:26.33 | 2:03.35 | 177483 | 186742
16 | 41:29.68 | 1:57.71 | 186743 | 195588
17 | 43:27.64 | 2:57.44 | 195589 | 208907
Range status and errors
Selected range
Filename C:\uTorrent\CD\Mina_Adriano Celentano - Fantastica-La mia storia\Mina - Fantastica.wav
Peak level 93.8 %
Range quality 100.0 %
Copy CRC 9890D3E0
Copy OK
No errors occurred
AccurateRip summary
Track 1 not present in database
Track 2 not present in database
Track 3 not present in database
Track 4 not present in database
Track 5 not present in database
Track 6 not present in database
Track 7 not present in database
Track 8 not present in database
Track 9 not present in database
Track 10 not present in database
Track 11 not present in database
Track 12 not present in database
Track 13 not present in database
Track 14 not present in database
Track 15 not present in database
Track 16 not present in database
Track 17 not present in database
None of the tracks are present in the AccurateRip database
End of status report

L'Animale

Диск 1: «Песни о любви»

1. La cura
2. L’emozione non ha voce
3. L’arcobaleno
4. Storia d’amore
5. Pi? di un sogno
6. Acqua e sale
7. Dormi amore
8. Una carezza in un pugno
9. Apri il cuore
10. Gelosia
11. Hai bucato la mia vita
12. Una rosa pericolosa
13. Angel
14. L’ultima donna che amo

EAC

Отчёт EAC об извлечении, выполненном 17. июля 2009, 20:49 для диска:
ADRIANO CELENTANO / L'ANIMALE (disc 1)
Дисковод: SONY DVD RW DW-Q58A Adapter: 1 ID: 1
Режим чтения: Точный (C2: нет, Точный поток: да, Отключение кэша: да)
Коррекция смещения при чтении: 6
Экстрачтение областей Lead-in и Lead-out : Нет
Выходной формат: Внутренние WAV-операции
44.100 Гц; 16 бит; стерео
Другие параметры:
Заполнение пропущенных сэмплов тишиной : Да
Удаление блоков с тишиной в начале и конце : Нет
Установленный внешний ASPI-интерфейс
Статус диапазона и ошибки
Выбранный диапазон
Имя файла G:\Celentano_Animale\Disc1\CDImage.wav
Пиковый уровень 100.0 %
Качество диапазона 100.0 %
CRC 07A78BA0
Копирование... OK
Ошибок не произошло
Конец отчёта

Диск 2: «Песни против»

1. Sognando Chernobyl
2. La situazione non ? buona
3. Mondo in mi 7a
4. I passi che facciamo
5. Il ragazzo della via Gluck
6. Svalutation
7. Io sono un uomo libero
8. Prisencolinensinainciusol remix
9. Aria… non sei pi? tu
10. Un albero di trenta piani
11. C'? sempre un motivo
12. I want to know — часть I и II
13. L’ultimo degli uccelli
14. Uomo macchina

EAC

Отчёт EAC об извлечении, выполненном 17. июля 2009, 21:07 для диска:
Adriano_Celentano / L'animale_2
Дисковод: SONY DVD RW DW-Q58A Adapter: 1 ID: 1
Режим чтения: Точный (C2: нет, Точный поток: да, Отключение кэша: да)
Коррекция смещения при чтении: 6
Экстрачтение областей Lead-in и Lead-out : Нет
Выходной формат: Внутренние WAV-операции
44.100 Гц; 16 бит; стерео
Другие параметры:
Заполнение пропущенных сэмплов тишиной : Да
Удаление блоков с тишиной в начале и конце : Нет
Установленный внешний ASPI-интерфейс
Статус диапазона и ошибки
Выбранный диапазон
Имя файла G:\Celentano_Animale\Disc2\CDImage.wav
Пиковый уровень 100.0 %
Качество диапазона 100.0 %
CRC 8CA6FF31
Копирование... OK
Ошибок не произошло
Конец отчёта

Саундтреки

Er pi? — Storia d’amore e di coltello

1. Tema di Er Pi? — 3:18
2. Una storia d’amore e di coltello (инструментальная версия) — 3:25
3. Il valzer della taverna — 2:56
4. Er Pi? (strumentale) — 3:12
5. Tema di una storia d’amore e di coltello — 5:25
6. Sotto le lenzuola — 4:18
7. Una storia come questa — 4:26
8. Non lo dico perch? non lo so — 1:17
9. Er Pi? — 3:04
10. Una storia d’amore e di coltello — 4:18

EAC

Exact Audio Copy V0.99 prebeta 5 from 4. May 2009
Отчёт EAC об извлечении, выполненном 22. сентября 2009, 19:13
Adriano Celentano / Er Piu' - Store D'amore E Di Coltello
Дисковод: PLEXTOR CD-R PX-W4824A Adapter: 0 ID: 0
Режим чтения : Достоверность
Использование точного потока : Да
Отключение кэша аудио : Да
Использование указателей C2 : Нет
Коррекция смещения при чтении : 98
Способность читать области Lead-in и Lead-out : Да
Заполнение пропущенных сэмплов тишиной : Да
Удаление блоков с тишиной в начале и конце : Нет
При вычислениях CRC использовались нулевые сэмплы : Да
Интерфейс : Встроенный Win32-интерфейс для Win NT/2000
Выходной формат : Пользовательский кодировщик
Выбранный битрейт : 1024 kBit/s
Качество : Высокий
Добавление ID3-тэга : Нет
Утилита сжатия : C:\Program Files\Exact Audio Copy\Flac\flac.exe
Дополнительные параметры : -8 -V %s -o %d
TOC извлечённого CD
Трек | Старт | Длительность | Начальный сектор | Конечный сектор
---------------------------------------------------------------------
1 | 0:00.00 | 3:16.13 | 0 | 14712
2 | 3:16.13 | 3:18.40 | 14713 | 29602
3 | 6:34.53 | 2:54.47 | 29603 | 42699
4 | 9:29.25 | 3:14.00 | 42700 | 57249
5 | 12:43.25 | 5:28.11 | 57250 | 81860
6 | 18:11.36 | 4:19.53 | 81861 | 101338
7 | 22:31.14 | 4:26.34 | 101339 | 121322
8 | 26:57.48 | 1:18.35 | 121323 | 127207
9 | 28:16.08 | 3:08.06 | 127208 | 141313
10 | 31:24.14 | 4:18.53 | 141314 | 160716
Характеристики диапазона извлечения и сообщения об ошибках
Выбранный диапазон
Имя файла D:\Музыка\Adriano Celentano\1971 - Er Piu' - Store D'amore E Di Coltello\Adriano Celentano - Er Piu' - Store D'amore E Di Coltello.wav
Пиковый уровень 99.9 %
Качество диапазона 100.0 %
CRC копии 3349B8E8
Копирование... OK
Ошибок не произошло
AccurateRip: сводка
Трек 1 нет в базе данных
Трек 2 нет в базе данных
Трек 3 нет в базе данных
Трек 4 нет в базе данных
Трек 5 нет в базе данных
Трек 6 нет в базе данных
Трек 7 нет в базе данных
Трек 8 нет в базе данных
Трек 9 нет в базе данных
Трек 10 нет в базе данных
Ни одного трека нет в базе AccurateRip
Конец отчёта

Yuppi du

1. «L’affondamento» 3:46
2. «La messa» 3:48
3. «A chi stai pensando?» 0:20
4. «V? chi c'?» 0:45
5. «La ballata» 2:07
6. «La passerella» 7:04
7. «Such a cold night to-night» 4:03
8. «La violenza» 1:53
9. «Do dap» 2:57
10. «Yuppi du» 4:26
11. «Il castagnaro» 2:17
12. «Il finale» 2:39
13. «Yuppi du» 3:32

EAC

Exact Audio Copy V0.99 prebeta 5 from 4. May 2009
Отчёт EAC об извлечении, выполненном 21. сентября 2009, 22:40
Adriano Celentano / Yuppi Du
Дисковод: PLEXTOR CD-R PX-W4824A Adapter: 0 ID: 0
Режим чтения : Достоверность
Использование точного потока : Да
Отключение кэша аудио : Да
Использование указателей C2 : Нет
Коррекция смещения при чтении : 98
Способность читать области Lead-in и Lead-out : Да
Заполнение пропущенных сэмплов тишиной : Да
Удаление блоков с тишиной в начале и конце : Нет
При вычислениях CRC использовались нулевые сэмплы : Да
Интерфейс : Встроенный Win32-интерфейс для Win NT/2000
Выходной формат : Пользовательский кодировщик
Выбранный битрейт : 1024 kBit/s
Качество : Высокий
Добавление ID3-тэга : Нет
Утилита сжатия : C:\Program Files\Exact Audio Copy\Flac\flac.exe
Дополнительные параметры : -8 -V %s -o %d
TOC извлечённого CD
Трек | Старт | Длительность | Начальный сектор | Конечный сектор
---------------------------------------------------------------------
1 | 0:02.00 | 3:45.52 | 150 | 17076
2 | 3:47.52 | 3:47.60 | 17077 | 34161
3 | 7:35.37 | 0:20.30 | 34162 | 35691
4 | 7:55.67 | 0:44.60 | 35692 | 39051
5 | 8:40.52 | 2:07.15 | 39052 | 48591
6 | 10:47.67 | 7:04.23 | 48592 | 80414
7 | 17:52.15 | 4:03.00 | 80415 | 98639
8 | 21:55.15 | 1:53.22 | 98640 | 107136
9 | 23:48.37 | 2:56.40 | 107137 | 120376
10 | 26:45.02 | 4:25.60 | 120377 | 140311
11 | 31:10.62 | 2:17.03 | 140312 | 150589
12 | 33:27.65 | 2:38.72 | 150590 | 162511
13 | 36:06.62 | 3:32.11 | 162512 | 178422
Характеристики диапазона извлечения и сообщения об ошибках
Выбранный диапазон
Имя файла D:\Музыка\Adriano Celentano\1975 - Yuppi Du\Adriano Celentano - Yuppi Du.wav
Пиковый уровень 99.9 %
Качество диапазона 100.0 %
CRC копии 52808C32
Копирование... OK
Ошибок не произошло
AccurateRip: сводка
Трек 1 нет в базе данных
Трек 2 нет в базе данных
Трек 3 нет в базе данных
Трек 4 нет в базе данных
Трек 5 нет в базе данных
Трек 6 нет в базе данных
Трек 7 нет в базе данных
Трек 8 нет в базе данных
Трек 9 нет в базе данных
Трек 10 нет в базе данных
Трек 11 нет в базе данных
Трек 12 нет в базе данных
Трек 13 нет в базе данных
Ни одного трека нет в базе AccurateRip
Конец отчёта

Geppo il folle

1. Geppo
2. Hello America
3. Happy to be dancing with you
4. Che cosa ti farei
5. (Please) Stay a little longer
6. Sei proprio tu (Don't get me wrong)

EAC

Exact Audio Copy V0.99 prebeta 4 from 23. January 2008
EAC extraction logfile from 29. October 2008, 16:04
Adriano Celentano / Geppo il Folle
Used drive : TSSTcorpCDDVDW SH-S203B Adapter: 6 ID: 0
Read mode : Secure
Utilize accurate stream : Yes
Defeat audio cache : Yes
Make use of C2 pointers : No
Read offset correction : 6
Overread into Lead-In and Lead-Out : No
Fill up missing offset samples with silence : Yes
Delete leading and trailing silent blocks : No
Null samples used in CRC calculations : Yes
Used interface : Installed external ASPI interface
Used output format : User Defined Encoder
Selected bitrate : 1024 kBit/s
Quality : High
Add ID3 tag : No
Command line compressor : C:\Program Files\FLAC\flac.exe
Additional command line options : -8 -V -T "ARTIST=%a" -T "TITLE=%t" -T "ALBUM=%g" -T "DATE=%y" -T "TRACKNUMBER=%n" -T "GENRE=%m" -T "COMMENT=%e" %s -o %d
TOC of the extracted CD
Track | Start | Length | Start sector | End sector
---------------------------------------------------------
1 | 0:00.00 | 9:38.25 | 0 | 43374
2 | 9:38.25 | 3:58.30 | 43375 | 61254
3 | 13:36.55 | 6:14.67 | 61255 | 89371
4 | 19:51.47 | 5:32.65 | 89372 | 114336
5 | 25:24.37 | 5:52.45 | 114337 | 140781
6 | 31:17.07 | 5:43.58 | 140782 | 166564
Range status and errors
Selected range
Filename C:\uTorrent\CD\Adriano Celentano - Geppo il Folle\Adriano Celentano - Geppo il Folle.wav
Peak level 100.0 %
Range quality 99.9 %
Copy CRC E4189751
Copy OK
No errors occurred
AccurateRip summary
Track 1 not present in database
Track 2 not present in database
Track 3 not present in database
Track 4 not present in database
Track 5 not present in database
Track 6 not present in database
None of the tracks are present in the AccurateRip database
End of status report

Joan Lui

1. L’uomo perfetto — 4:58
2. Sex Without Love — 3:04
3. Il tempio — 5:43
4. Mistero — 6:00
5. Luned? — 4:43
6. Qualcosa nascer? — 6:17
7. Splendida e nuda — 5:45
8. L’ora ? giunta — 8:19
9. La prima stella — 4:16

EAC

Exact Audio Copy V0.99 prebeta 4 from 23. January 2008
Отчёт EAC об извлечении, выполненном 22. марта 2009, 13:11
Adriano Celentano / Joan Lui
Дисковод: PIONEER DVD-RW DVR-112D Adapter: 4 ID: 0
Режим чтения : Достоверность
Использование точного потока : Да
Отключение кэша аудио : Да
Использование указателей C2 : Нет
Коррекция смещения при чтении : 48
Способность читать области Lead-in и Lead-out : Нет
Заполнение пропущенных сэмплов тишиной : Да
Удаление блоков с тишиной в начале и конце : Нет
При вычислениях CRC использовались нулевые сэмплы : Да
Интерфейс : Встроенный Win32-интерфейс для Win NT/2000
Выходной формат : Внутренние WAV-операции
Формат сэмплов : 44.100 Гц; 16 бит; стерео
TOC извлечённого CD
Трек | Старт | Длительность | Начальный сектор | Конечный сектор
---------------------------------------------------------------------
1 | 0:00.00 | 4:58.20 | 0 | 22369
2 | 4:58.20 | 3:04.16 | 22370 | 36185
3 | 8:02.36 | 5:42.55 | 36186 | 61890
4 | 13:45.16 | 5:59.51 | 61891 | 88866
5 | 19:44.67 | 4:43.14 | 88867 | 110105
6 | 24:28.06 | 6:16.43 | 110106 | 138348
7 | 30:44.49 | 5:45.18 | 138349 | 164241
8 | 36:29.67 | 8:18.58 | 164242 | 201649
9 | 44:48.50 | 4:14.72 | 201650 | 220771
Характеристики диапазона извлечения и сообщения об ошибках
Выбранный диапазон
Имя файла C:\Users\Master\Documents\Adriano Celentano - Joan Lui.wav
Пиковый уровень 99.9 %
Качество диапазона 100.0 %
CRC копии 82973FB5
Копирование... OK
Ошибок не произошло
Конец отчёта
© captanantiel


Последний раз редактировалось: iksovina (2016-01-21 02:13), всего редактировалось 1 раз
[Профиль]  [ЛС] 

vados

Стаж:
9 лет
Сообщений:
926

iksovina, в шапку. Не надо делать отдельных сообщений.
=============================================
Apple MBP15
Apple MB13 White 10.7.5
Apple iBookG4 10.5.8 Раритет)
Apple iPhone 7 Plus 128Gb
[Профиль]  [ЛС] 
Показать сообщения:    

Текущее время: Сегодня 11:54

Часовой пояс: GMT + 4



Вы не можете начинать темы
Вы не можете отвечать на сообщения
Вы не можете редактировать свои сообщения
Вы не можете удалять свои сообщения
Вы не можете голосовать в опросах
Вы не можете прикреплять файлы к сообщениям
Вы не можете скачивать файлы