Новые торренты

Самые скачиваемые

Топ 5 Cидеров

Топ 5 Личеров

 

Red_Bandit ®

Стаж:
9 лет 4 месяца
Сообщений:
173

Tom?? Dvo??k - Machinarium Soundtrack
Жанр: Soundtrack / Enclosure
Издатель: 1C
Официальный сайт: http://machinarium.net/
Год выпуска: 2009
Источник: FLAC track
Продолжительность: 00:48:13
Тексты: отсутствуют
-
Трэклист:
01. The Bottom - 5:30
02. The Sea - 3:54
03. Clockwise Operetta - 3:54
04. Nanorobot Tune - 3:07
05. The Mezzanine - 2:15
06. Mr. Handagote - 3:17
07. Gameboy Tune - 4:37
08. The Furnace - 2:58
09. The Black Cap Brotherhood Theme - 1:50
10. The Prison - 2:34
11. The Glasshouse with Butterfly - 3:36
12. The Castle - 3:37
13. The Elevator - 7:13
14. The End (Prague Radio) - 2:39
-Технические данные

Сонограмма на трек 07. Gameboy Tune

EAC extraction logfile from 17. November 2009

Exact Audio Copy V0.99 prebeta 5 from 4. May 2009
EAC extraction logfile from 17. November 2009, 18:25
Tomas Dvorak / Machinarium Soundtrack
Used drive : Optiarc DVD RW AD-5240S Adapter: 5 ID: 1
Read mode : Secure
Utilize accurate stream : Yes
Defeat audio cache : Yes
Make use of C2 pointers : No
Read offset correction : 48
Overread into Lead-In and Lead-Out : No
Fill up missing offset samples with silence : Yes
Delete leading and trailing silent blocks : No
Null samples used in CRC calculations : Yes
Used interface : Native Win32 interface for Win NT & 2000
Gap handling : Appended to previous track
Used output format : Internal WAV Routines
Sample format : 44.100 Hz; 16 Bit; Stereo
TOC of the extracted CD
Track | Start | Length | Start sector | End sector
---------------------------------------------------------
1 | 0:00.00 | 5:30.21 | 0 | 24770
2 | 5:30.21 | 3:53.72 | 24771 | 42317
3 | 9:24.18 | 3:53.46 | 42318 | 59838
4 | 13:17.64 | 3:06.41 | 59839 | 73829
5 | 16:24.30 | 2:14.64 | 73830 | 83943
6 | 18:39.19 | 3:16.73 | 83944 | 98716
7 | 21:56.17 | 4:37.18 | 98717 | 119509
8 | 26:33.35 | 2:58.11 | 119510 | 132870
9 | 29:31.46 | 1:49.64 | 132871 | 141109
10 | 31:21.35 | 2:34.16 | 141110 | 152675
11 | 33:55.51 | 3:35.66 | 152676 | 168866
12 | 37:31.42 | 3:36.71 | 168867 | 185137
13 | 41:08.38 | 7:12.74 | 185138 | 217611
14 | 48:21.37 | 2:38.38 | 217612 | 229499
Track 1
Filename Y:\01 - The Bottom.wav
Pre-gap length 0:00:02.00
Peak level 95.4 %
Track quality 100.0 %
Test CRC AE013E89
Copy CRC AE013E89
Track not present in AccurateRip database
Copy OK
Track 2
Filename Y:\02 - The Sea.wav
Peak level 95.4 %
Track quality 100.0 %
Test CRC 9EF7ED96
Copy CRC 9EF7ED96
Track not present in AccurateRip database
Copy OK
Track 3
Filename Y:\03 - Clockwise Operetta.wav
Peak level 95.4 %
Track quality 100.0 %
Test CRC E281E089
Copy CRC E281E089
Track not present in AccurateRip database
Copy OK
Track 4
Filename Y:\04 - Nanorobot Tune.wav
Peak level 95.4 %
Track quality 100.0 %
Test CRC 1CFD46F8
Copy CRC 1CFD46F8
Track not present in AccurateRip database
Copy OK
Track 5
Filename Y:\05 - The Mezzanine.wav
Peak level 88.6 %
Track quality 100.0 %
Test CRC 1FA24899
Copy CRC 1FA24899
Track not present in AccurateRip database
Copy OK
Track 6
Filename Y:\06 - Mr. Handagote.wav
Peak level 95.4 %
Track quality 100.0 %
Test CRC C0682EFE
Copy CRC C0682EFE
Track not present in AccurateRip database
Copy OK
Track 7
Filename Y:\07 - Gameboy Tune.wav
Peak level 95.4 %
Track quality 100.0 %
Test CRC CC358E64
Copy CRC CC358E64
Track not present in AccurateRip database
Copy OK
Track 8
Filename Y:\08 - The Furnace.wav
Peak level 95.4 %
Track quality 100.0 %
Test CRC 725612AE
Copy CRC 725612AE
Track not present in AccurateRip database
Copy OK
Track 9
Filename Y:\09 - The Black Cap Brotherhood Theme.wav
Peak level 95.4 %
Track quality 100.0 %
Test CRC 8EEF5E93
Copy CRC 8EEF5E93
Track not present in AccurateRip database
Copy OK
Track 10
Filename Y:\10 - The Prison.wav
Peak level 95.4 %
Track quality 100.0 %
Test CRC 407E9841
Copy CRC 407E9841
Track not present in AccurateRip database
Copy OK
Track 11
Filename Y:\11 - The Glasshouse With Butterfly.wav
Peak level 95.4 %
Track quality 100.0 %
Test CRC 14117D91
Copy CRC 14117D91
Track not present in AccurateRip database
Copy OK
Track 12
Filename Y:\12 - The Castle.wav
Peak level 95.4 %
Track quality 100.0 %
Test CRC AA90B8FF
Copy CRC AA90B8FF
Track not present in AccurateRip database
Copy OK
Track 13
Filename Y:\13 - The Elevator.wav
Peak level 95.4 %
Track quality 99.9 %
Test CRC 89A8E19C
Copy CRC 89A8E19C
Track not present in AccurateRip database
Copy OK
Track 14
Filename Y:\14 - Vojtech Zelinsky - The End (Prague Radio).wav
Peak level 95.4 %
Track quality 100.0 %
Test CRC ABF2FFDD
Copy CRC ABF2FFDD
Track not present in AccurateRip database
Copy OK
None of the tracks are present in the AccurateRip database
No errors occurred
End of status report

Дополнительная информация:
Музыкальное оформление игры было подготовлено чешским композитором Томашом Двораком. Саундтрек игры вышел на отдельном диске 21 ноября 2009 года. В альбом вошли 14 треков. Кроме CD-версий саундтрека, было решено выпустить версию для коллекционеров, на виниле.
20 февраля 2010 года в продаже появилось 555 виниловых пластинок с саундтреком игры. 405 из них были выполнены в черном цвете, оставшиеся 150 - в ядовито желтом. Все копии имеют уникальный идентификационный номер, на каждой из них автограф композитора Томаша Дворака. Кроме того, к каждой пластинке прилагается 3 художественных репродукции от Адольфа Лохмана, а так же купон на бесплатную загрузку MP3 или FLAC версий саундтрека.
Не вошедшие в основной саундтрек композиции были изданы отдельным диском и опубликованы в общем доступе на сайте проекта.
-
Stop complaining. I know what's best for you. © Steve Jobs


Последний раз редактировалось: Red_Bandit (2010-10-30 08:11), всего редактировалось 5 раз(а)
[Профиль]  [ЛС] 

tararamka

Стаж:
9 лет 7 месяцев
Сообщений:
2

Спасибо! Забираем...
[Профиль]  [ЛС] 

Адель

Стаж:
8 лет
Сообщений:
6

Спасибо большое!
[Профиль]  [ЛС] 

Red_Bandit ®

Стаж:
9 лет 4 месяца
Сообщений:
173

Адель
На здоровье. Есть еще бонусные 4 трека, не вошедшие в релиз, но они в MP3 256. В принципе, как дополнения к основному изданию, они могут быть добалены к раздаче здесь. Если кому то это нужно ессно. Хотя они в свободном доступе есть и так.
Stop complaining. I know what's best for you. © Steve Jobs
[Профиль]  [ЛС] 
Показать сообщения:    

Текущее время: Сегодня 11:42

Часовой пояс: GMT + 4



Вы не можете начинать темы
Вы не можете отвечать на сообщения
Вы не можете редактировать свои сообщения
Вы не можете удалять свои сообщения
Вы не можете голосовать в опросах
Вы не можете прикреплять файлы к сообщениям
Вы не можете скачивать файлы