Самые скачиваемые

5 C

5

 

Red_Bandit ®

Longevity:
10 years
Posts:
172

Placebo - Once More With Feeling (Ltd. Edition)
Страна: Great Britain
Жанр: Alternative / Rock
Издатель: Virgin Records
Официальный сайт: http://www.placeboworld.co.uk/
Год выпуска: 2004
Источник: WavePack
Продолжительность: 01:55:35
Тексты: присутствуют + обложки встроены в теги
-Трэклисты:

CD1 - Singles 1996-2004


CD1 - Singles 1996-2004:
01. 36 Degrees (3:07)
02. Teenage Angst (2:40)
03. Nancy Boy (Radio Edit) (3:19)
04. Bruise Pristine (3:36)
05. Pure Morning (Single Edit) (3:59)
06. You Don't Care About Us (4:01)
07. Every You Every Me (Single Mix) (3:34)
08. Without You I'm Nothing (Single Mix)(featuring David Bowie) (4:14)
09. Taste In Men (Radio Edit) (3:59)
10. Slave To The Wage (Radio Edit) (3:46)
11. Special K (3:50)
12. Black-Eyed (3:44)
13. The Bitter End (3:11)
14. This Picture (3:35)
15. Special Needs (Edit) (3:29)
16. English Summer Rain (Single Version) (3:10)
17. Prot?ge-Moi (3:14)
18. I Do (2:27)
19. Twenty Years (4:19)

CD2 - Remix Bonus


CD2 - Remix Bonus:
01. Special K (Timo Maas Remix) (7:30)
02. Without You I'm Nothing (UNKLE Remix) (5:07)
03. Every You Every Me (Infected By The Scourge Of The Earth) (3:57)
04. Prot?ge-Moi (M83 Remix) (3:19)
05. Slave To The Wage (I Can't Believe It's A Remix) (3:29)
06. Pure Morning (Les Rythmes Digitales Remix) (5:38)
07. Taste In Men (Alpinestars Kamikaze Skimix) (4:36)
08. Black-Eyed (Placebo Vs. Le Vibrator Mix) (5:10)
09. English Summer Rain (Freelance Hellraiser Remix) (3:40)
10. This Picture (Junior Sanchez Remix) (5:55)

Тех-данные:

CD1 - Сонограмма на трек: 11. Special K

CD2 - Сонограмма на трек: 09. English Summer Rain (Freelance Hellraiser Remix)


CD1 - oтчёт EAC об извлечении, выполненном 1. января 2009

Exact Audio Copy V0.99 prebeta 4 from 23. January 2008
Отчёт EAC об извлечении, выполненном 1. января 2009, 14:44
Placebo / Once More With Feeling (Limited Edition) CD1
Дисковод: SONY CD-RW CRX215E1 Adapter: 0 ID: 1
Режим чтения : Достоверность
Использование точного потока : Да
Отключение кэша аудио : Да
Использование указателей C2 : Нет
Коррекция смещения при чтении : 6
Способность читать области Lead-in и Lead-out : Нет
Заполнение пропущенных сэмплов тишиной : Да
Удаление блоков с тишиной в начале и конце : Нет
При вычислениях CRC использовались нулевые сэмплы : Да
Интерфейс : Встроенный Win32-интерфейс для Win NT/2000
Выходной формат : Внутренние WAV-операции
Формат сэмплов : 44.100 Гц; 16 бит; стерео
TOC извлечённого CD
Трек | Старт | Длительность | Начальный сектор | Конечный сектор
---------------------------------------------------------------------
1 | 0:00.00 | 3:07.40 | 0 | 14064
2 | 3:07.40 | 2:40.28 | 14065 | 26092
3 | 5:47.68 | 3:19.45 | 26093 | 41062
4 | 9:07.38 | 3:36.09 | 41063 | 57271
5 | 12:43.47 | 3:59.27 | 57272 | 75223
6 | 16:42.74 | 4:01.06 | 75224 | 93304
7 | 20:44.05 | 3:34.15 | 93305 | 109369
8 | 24:18.20 | 4:14.21 | 109370 | 128440
9 | 28:32.41 | 3:59.54 | 128441 | 146419
10 | 32:32.20 | 3:46.21 | 146420 | 163390
11 | 36:18.41 | 3:50.07 | 163391 | 180647
12 | 40:08.48 | 3:44.10 | 180648 | 197457
13 | 43:52.58 | 3:11.70 | 197458 | 211852
14 | 47:04.53 | 3:35.68 | 211853 | 228045
15 | 50:40.46 | 3:29.29 | 228046 | 243749
16 | 54:10.00 | 3:10.08 | 243750 | 258007
17 | 57:20.08 | 3:14.38 | 258008 | 272595
18 | 60:34.46 | 2:27.54 | 272596 | 283674
19 | 63:02.25 | 4:19.29 | 283675 | 303128
20 | 69:53.54 | 7:32.18 | 314529 | 348446
Характеристики диапазона извлечения и сообщения об ошибках
Выбранный диапазон
Имя файла C:\Documents\Моя музыка\1\Placebo - Once More With Feeling (2004, Limited Edition) CD1.wav
Пиковый уровень 98.9 %
Качество диапазона 100.0 %
CRC теста 720398F0
CRC копии 720398F0
Копирование... OK
Ошибок не произошло
Конец отчёта

CD2 - oтчёт EAC об извлечении, выполненном 1. января 2009

Exact Audio Copy V0.99 prebeta 4 from 23. January 2008
Отчёт EAC об извлечении, выполненном 1. января 2009, 15:05
Placebo / Once More With Feeling (Limited Edition) CD2
Дисковод: SONY CD-RW CRX215E1 Adapter: 0 ID: 1
Режим чтения : Достоверность
Использование точного потока : Да
Отключение кэша аудио : Да
Использование указателей C2 : Нет
Коррекция смещения при чтении : 6
Способность читать области Lead-in и Lead-out : Нет
Заполнение пропущенных сэмплов тишиной : Да
Удаление блоков с тишиной в начале и конце : Нет
При вычислениях CRC использовались нулевые сэмплы : Да
Интерфейс : Встроенный Win32-интерфейс для Win NT/2000
Выходной формат : Внутренние WAV-операции
Формат сэмплов : 44.100 Гц; 16 бит; стерео
TOC извлечённого CD
Трек | Старт | Длительность | Начальный сектор | Конечный сектор
---------------------------------------------------------------------
1 | 0:00.00 | 7:30.34 | 0 | 33783
2 | 7:30.34 | 5:07.48 | 33784 | 56856
3 | 12:38.07 | 3:57.32 | 56857 | 74663
4 | 16:35.39 | 3:19.38 | 74664 | 89626
5 | 19:55.02 | 3:29.42 | 89627 | 105343
6 | 23:24.44 | 5:38.41 | 105344 | 130734
7 | 29:03.10 | 4:36.22 | 130735 | 151456
8 | 33:39.32 | 5:10.40 | 151457 | 174746
9 | 38:49.72 | 3:40.64 | 174747 | 191310
10 | 42:30.61 | 5:55.71 | 191311 | 218006
11 | 50:58.57 | 22:59.18 | 229407 | 332849
Характеристики диапазона извлечения и сообщения об ошибках
Выбранный диапазон
Имя файла C:\Documents\Моя музыка\1\Placebo - Once More With Feeling (2004, Limited Edition) CD2.wav
Пиковый уровень 99.7 %
Качество диапазона 100.0 %
CRC теста 4A282F7D
CRC копии 4A282F7D
Копирование... OK
Ошибок не произошло
Конец отчёта

-
Дополнительная информация:
В конце 2004 года, десять лет спустя после судьбоносной встречи между Брайаном Молко и Стефаном Олсдалом в лондонском метро, увидит свет сборник лучших произведений Placebo. Преданные фанаты возмущены кощунством. Они вопят, что всё пропало, что группа продала душу большим деньгам и окончательно порвала с пакновской цельностью, к которой они стремились в начале своей карьеры. Так как выход Once More With Feeling был встречен пласибофилами с недоверием, этот альбом, тем не менее, является важной меткой на пути группы. Меткой, которая позволяет взвесить и оценить пройденный извилистый путь. Но речь собственно говоря идет не о самой компиляции, а о сборнике классических синглов в хронологическом порядке. Диск игнорирует несколько шедевров, которые не удостоились чести выйти на синглах (Hang On to Your IQ, Scared of Girls…) и демонстрирует фильм о группе, которая снова раскрывается между каждым альбомом. Четыре мастерских сингла с первого альбома сразу же представляют мутную картинку живой и неистовой группы, задыхающейся от ошеломляющей злости существования. Затем путь останавливается на втором альбоме и приступы гнева уступают место мелодичной очевидности, подкрашенной самоанализом. Эти тексты (Pure Morning, Every You, Every Me…) без сомнения являются самыми трогательными из когда-либо написанных Placebo, которые достигают некой полноты, цельности, пригласив Боуи в свои ряды, для записи душераздирающей версии Without You I’m Nothing. Продолжение истории Placebo лучше постановлено, с использованием специальных, мастерских эффектов, но речь иногда теряет искренность.

На синглах с Black Market Music, технологический конформизм вредит качеству трио, на картинках буклетов Taste in Men или Black-Eyed, которые появляются сегодня слегка раздутыми. Но это ощущение быстро рассеивается кусочками с четвертого альбома. На Sleeping With Ghosts группа кажется снова нашла эту невероятную алхимическую формулу, которая придает им силу. Это мимолетный баланс между жестким отчаянием и мелодичными исповедями, где отныне мерцают искры (The Bitter End) и откровенная витиеватая выдумка (English Summer Rain). Две неизданных композиции, которые закрывают Once More With Feeling, подтверждают это афишированное желание Placebo двигаться вперед, не поворачиваясь спиной к прошлому. Неожиданно исчезнув из I Do, гитары вновь и гораздо лучше появляются в форме классической фактурной баллады (Twenty Years). Коллекционная версия Once More With Feeling сопровождается диском ремиксов, где любители первого порядка (U.N.K.L.E., M 83…) занимаются исследованием гибкости названий Placebo. Special K, This Picture или English Summer Rain набирают таким образом громкость и становятся машинами, заставляющими молодежь двигаться на танцполах, в то время как Without You I’m Nothing основана на волнующем переплетении голоса, который как будто перебрасывается словами. Значимое исключение в этой распространившейся горячности составляет божественное перечтение Slave to The Wage. Все инструменты были перевернуты, или почти все, остается только синтетическое полотно, умоляющий голос Молко и устрашающие слова. Ни на что кроме этого куска храбрости пласибофилы не должны дуться на Once More With Feeling.Состав коллектива:
Брайан Молко (англ. Brian Molko) — вокал, гитара, клавишные, гармоника, саксофон
Стефан Олсдал (англ. Stefan Olsdal) — гитара, бас, клавишные, бэк-вокал
Стивен Форрест (англ. Steve Forrest) — ударные
-
Stop complaining. I know what's best for you. © Steve Jobs
[Profile]  [PM] 

Red_Bandit ®

Longevity:
10 years
Posts:
172

Обновил торрент, были какие-то загадочные проблемы с поддержкой этой раздачи...
Stop complaining. I know what's best for you. © Steve Jobs
[Profile]  [PM] 

delic666

Longevity:
8 years 11 months
Posts:
6

3% уже сутки не могу докачать(
[Profile]  [PM] 
Display posts from previous:    

The time now is: Today 12:12

All times are GMT + 4 Hours



You cannot post new topics in this forum
You cannot reply to topics in this forum
You cannot edit your posts in this forum
You cannot delete your posts in this forum
You cannot vote in polls in this forum
You cannot attach files in this forum
You cannot download files in this forum