Самые скачиваемые

5 C

5

 

VioLet ®

Longevity:
9 years 7 months
Posts:
73

I.Witness - Self-Titled
Жанр: Emotional Hardcore, Screamo
Год выпуска: 2009
Формат: ALAC (tracks)
Источник: CD
Издатель: They Live! Records
Продолжительность: 00:32:43
Тексты: Отсутствуют
Трэклист:
01. Один День Ивана Денисовича
02. Закрытые Изнутри Двери
03. Трагедии
04. Ноябрь,19
05. Приметы Проливного Дождя
06. Общество Обманутых Детей
07. Могли Бы Топить Корабли
08. Изоляция
09. Loose Lips

Технические данные:-

Лог граббера

X Lossless Decoder version 20100505 (119.1)
XLD extraction logfile from 2010-05-08 19:04:56 +0700
I.Witness - s\t
Used drive : PIONEER DVD-RW DVRKD08RS (revision 1.02)
Use cdparanoia mode : YES (CDParanoia III 10.2 engine)
Disable audio cache : OK for the drive with cache less than 2750KB
Make use of C2 pointers : NO
Read offset correction : 48
Max retry count : 100
TOC of the extracted CD
Track | Start | Length | Start sector | End sector
---------------------------------------------------------
1 | 00:00:00 | 04:43:40 | 0 | 21264
2 | 04:43:40 | 03:47:63 | 21265 | 38352
3 | 08:31:28 | 03:12:12 | 38353 | 52764
4 | 11:43:40 | 02:43:74 | 52765 | 65063
5 | 14:27:39 | 03:42:43 | 65064 | 81756
6 | 18:10:07 | 02:28:48 | 81757 | 92904
7 | 20:38:55 | 04:41:32 | 92905 | 114011
8 | 25:20:12 | 05:37:68 | 114012 | 139354
9 | 30:58:05 | 01:54:00 | 139355 | 147904
Track 01
Filename : /Users/VioLet/Music/I.Witness/01 I.Witness - Один День Ивана Денисовича.m4a
Pre-gap length : 00:02:00
CRC32 hash (test run) : B1F54185
CRC32 hash : B1F54185
CRC32 hash (skip zero) : ABCCDC51
AccurateRip signature : C2587B25
->Track not present in AccurateRip database.
Statistics
Read error : 0
Skipped (treated as error) : 0
Edge jitter error (maybe fixed) : 0
Atom jitter error (maybe fixed) : 0
Drift error (maybe fixed) : 0
Dropped bytes error (maybe fixed) : 0
Duplicated bytes error (maybe fixed) : 0
Inconsistency in error sectors : 0
Track 02
Filename : /Users/VioLet/Music/I.Witness/02 I.Witness - Закрытые Изнутри Двери.m4a
CRC32 hash (test run) : 04DD8DCB
CRC32 hash : 04DD8DCB
CRC32 hash (skip zero) : BBF414CD
AccurateRip signature : BAF38CAD
->Track not present in AccurateRip database.
Statistics
Read error : 0
Skipped (treated as error) : 0
Edge jitter error (maybe fixed) : 0
Atom jitter error (maybe fixed) : 0
Drift error (maybe fixed) : 0
Dropped bytes error (maybe fixed) : 0
Duplicated bytes error (maybe fixed) : 0
Inconsistency in error sectors : 0
Track 03
Filename : /Users/VioLet/Music/I.Witness/03 I.Witness - Трагедии.m4a
CRC32 hash (test run) : 87A7CE1C
CRC32 hash : 87A7CE1C
CRC32 hash (skip zero) : 872EF288
AccurateRip signature : AF4299E9
->Track not present in AccurateRip database.
Statistics
Read error : 0
Skipped (treated as error) : 0
Edge jitter error (maybe fixed) : 0
Atom jitter error (maybe fixed) : 0
Drift error (maybe fixed) : 0
Dropped bytes error (maybe fixed) : 0
Duplicated bytes error (maybe fixed) : 0
Inconsistency in error sectors : 0
Track 04
Filename : /Users/VioLet/Music/I.Witness/04 I.Witness - Ноябрь,19.m4a
CRC32 hash (test run) : A25F9729
CRC32 hash : A25F9729
CRC32 hash (skip zero) : 4D8809EB
AccurateRip signature : DEDAF1AE
->Track not present in AccurateRip database.
Statistics
Read error : 0
Skipped (treated as error) : 0
Edge jitter error (maybe fixed) : 0
Atom jitter error (maybe fixed) : 0
Drift error (maybe fixed) : 0
Dropped bytes error (maybe fixed) : 0
Duplicated bytes error (maybe fixed) : 0
Inconsistency in error sectors : 0
Track 05
Filename : /Users/VioLet/Music/I.Witness/05 I.Witness - Приметы Проливного Дождя.m4a
CRC32 hash (test run) : 5E17F462
CRC32 hash : 5E17F462
CRC32 hash (skip zero) : 8FF3440B
AccurateRip signature : C627E2D3
->Track not present in AccurateRip database.
Statistics
Read error : 0
Skipped (treated as error) : 0
Edge jitter error (maybe fixed) : 0
Atom jitter error (maybe fixed) : 7
Drift error (maybe fixed) : 0
Dropped bytes error (maybe fixed) : 0
Duplicated bytes error (maybe fixed) : 0
Inconsistency in error sectors : 0
Track 06
Filename : /Users/VioLet/Music/I.Witness/06 I.Witness - Общество Обманутых Детей.m4a
CRC32 hash (test run) : DA20C440
CRC32 hash : DA20C440
CRC32 hash (skip zero) : 8B1AB54A
AccurateRip signature : A3898BB4
->Track not present in AccurateRip database.
Statistics
Read error : 0
Skipped (treated as error) : 0
Edge jitter error (maybe fixed) : 0
Atom jitter error (maybe fixed) : 0
Drift error (maybe fixed) : 0
Dropped bytes error (maybe fixed) : 0
Duplicated bytes error (maybe fixed) : 0
Inconsistency in error sectors : 0
Track 07
Filename : /Users/VioLet/Music/I.Witness/07 I.Witness - Могли Бы Топить Корабли.m4a
CRC32 hash (test run) : 86AAED9A
CRC32 hash : 86AAED9A
CRC32 hash (skip zero) : 95440F0A
AccurateRip signature : 82D4DBE7
->Track not present in AccurateRip database.
Statistics
Read error : 0
Skipped (treated as error) : 0
Edge jitter error (maybe fixed) : 1
Atom jitter error (maybe fixed) : 9
Drift error (maybe fixed) : 0
Dropped bytes error (maybe fixed) : 0
Duplicated bytes error (maybe fixed) : 0
Inconsistency in error sectors : 0
Track 08
Filename : /Users/VioLet/Music/I.Witness/08 I.Witness - Изоляция.m4a
CRC32 hash (test run) : 87D924F1
CRC32 hash : 87D924F1
CRC32 hash (skip zero) : E76A356F
AccurateRip signature : 54F1F9B2
->Track not present in AccurateRip database.
Statistics
Read error : 0
Skipped (treated as error) : 0
Edge jitter error (maybe fixed) : 0
Atom jitter error (maybe fixed) : 0
Drift error (maybe fixed) : 0
Dropped bytes error (maybe fixed) : 0
Duplicated bytes error (maybe fixed) : 0
Inconsistency in error sectors : 0
Track 09
Filename : /Users/VioLet/Music/I.Witness/09 I.Witness - Loose Lips.m4a
CRC32 hash (test run) : C8A8AB96
CRC32 hash : C8A8AB96
CRC32 hash (skip zero) : EA15E462
AccurateRip signature : 0B718061
->Track not present in AccurateRip database.
Statistics
Read error : 0
Skipped (treated as error) : 0
Edge jitter error (maybe fixed) : 0
Atom jitter error (maybe fixed) : 0
Drift error (maybe fixed) : 0
Dropped bytes error (maybe fixed) : 0
Duplicated bytes error (maybe fixed) : 0
Inconsistency in error sectors : 0
No errors occurred
End of status report

Сонограмма на трек 06. Общество Обманутых Детей

[Profile]  [PM] 

Red_Bandit

Longevity:
10 years
Posts:
172

VioLet Как сам объясняешь срез по всем трекам ровно на 16KHz?
Stop complaining. I know what's best for you. © Steve Jobs
[Profile]  [PM] 

VioLet ®

Longevity:
9 years 7 months
Posts:
73

Red_Bandit
Во-первых, не по всем: Объясняется исключительно кривостью рук)
[Profile]  [PM] 

Red_Bandit

Longevity:
10 years
Posts:
172

Ну, руки по всей видимости тут не причем, твои по крайней мере. Рип сделан корректно. Но, кто-то их сюда таки приложил...
Раздай мне еще пару треков, посмотрим. И хотелось бы узнать, что за издание, так как, судя по всему несколько треков являются ремастером lossy формата с искусственной генерацией спектра. Остальные вытащу посмотрю...
Если это официальное издание такое и там присутствуют какие-то сведения о востановлении, то проверю. Но нужна инфа, ссылки и т.п.
Ежели нет, прийдется использовать статус - "сомнительно".
Stop complaining. I know what's best for you. © Steve Jobs
[Profile]  [PM] 

VioLet ®

Longevity:
9 years 7 months
Posts:
73

Вероятно,все дело в том, что диск записывался не на профессиональной студии, а самими музыкантами - отсюда такое качество.
Информацию о записи так и не нашел - ставь "сомнительно".
[Profile]  [PM] 
Display posts from previous:    

The time now is: Today 09:57

All times are GMT + 4 Hours



You cannot post new topics in this forum
You cannot reply to topics in this forum
You cannot edit your posts in this forum
You cannot delete your posts in this forum
You cannot vote in polls in this forum
You cannot attach files in this forum
You cannot download files in this forum