Новые торренты

Самые скачиваемые

5 C

5

 

Incubus_bass ®

Longevity:
10 years
Posts:
86

Demons of Guillotine - Beastiary
Жанр: Black metal
Издатель: Art Music Group
Официальный сайт: http://www.demonsofguillotine.com
Год выпуска: 2004
Источник: CD
Продолжительность: 53:11:00
Тексты: Отсутствуют
Трэклист:
01. - Твое имя
02. - Сквозь разрезы
03. - Серые туманы
04. - Бестиарий
05. - Эко, Гернуннос!
06. - Чертовы куклы - The Devil`s Dolls
07. - Опаленный рай
08. - Леди седлает черного коня
09. - Воздух-земля
10. - Ночь беспощадная
11. - Адонай
12. - Зодиак
-
Технические данные:

Сонограмма на трек - 02. - Сквозь разрезы

Лог граббера

X Lossless Decoder version 20100123 (115.4)
XLD extraction logfile from 2010-05-31 15:37:08 +0400
Demons Of Guillotine / Beastiary
Used drive : OPTIARC DVD RW AD-5670S (revision 2AHI)
Use cdparanoia mode : YES (CDParanoia III 10.2 engine)
Disable audio cache : OK for the drive with cache less than 2750KB
Make use of C2 pointers : NO
Read offset correction : 48
Max retry count : 100
TOC of the extracted CD
Track | Start | Length | Start sector | End sector
---------------------------------------------------------
1 | 00:00:00 | 04:45:60 | 0 | 21434
2 | 04:45:60 | 04:18:01 | 21435 | 40785
3 | 09:03:61 | 05:36:03 | 40786 | 65988
4 | 14:39:64 | 03:51:44 | 65989 | 83357
5 | 18:31:33 | 04:17:11 | 83358 | 102643
6 | 22:48:44 | 04:22:11 | 102644 | 122304
7 | 27:10:55 | 03:53:27 | 122305 | 139806
8 | 31:04:07 | 04:13:33 | 139807 | 158814
9 | 35:17:40 | 04:32:51 | 158815 | 179265
10 | 39:50:16 | 03:20:01 | 179266 | 194266
11 | 43:10:17 | 05:23:72 | 194267 | 218563
12 | 48:34:14 | 04:40:49 | 218564 | 239612
Track 01
Filename : /Users/Incubus/Desktop/Beastiary/01 Demons Of Guillotine - Твоё Имя.m4a
Pre-gap length : 00:02:00
CRC32 hash (test run) : CFDD9EE8
CRC32 hash : CFDD9EE8
CRC32 hash (skip zero) : 2C3E4890
AccurateRip signature : 23133010
->Accurately ripped! (confidence 2)
Statistics
Read error : 0
Skipped (treated as error) : 0
Edge jitter error (maybe fixed) : 0
Atom jitter error (maybe fixed) : 0
Drift error (maybe fixed) : 0
Dropped bytes error (maybe fixed) : 0
Duplicated bytes error (maybe fixed) : 0
Inconsistency in error sectors : 0
Track 02
Filename : /Users/Incubus/Desktop/Beastiary/02 Demons Of Guillotine - Сквозь Разрезы.m4a
CRC32 hash (test run) : 628B2AD4
CRC32 hash : 628B2AD4
CRC32 hash (skip zero) : CD101B7C
AccurateRip signature : 2A6741F9
->Accurately ripped! (confidence 2)
Statistics
Read error : 0
Skipped (treated as error) : 0
Edge jitter error (maybe fixed) : 0
Atom jitter error (maybe fixed) : 0
Drift error (maybe fixed) : 0
Dropped bytes error (maybe fixed) : 0
Duplicated bytes error (maybe fixed) : 0
Inconsistency in error sectors : 0
Track 03
Filename : /Users/Incubus/Desktop/Beastiary/03 Demons Of Guillotine - Серые Туманы.m4a
CRC32 hash (test run) : 7960DD27
CRC32 hash : 7960DD27
CRC32 hash (skip zero) : 3EC55707
AccurateRip signature : 6C86A776
->Accurately ripped! (confidence 2)
Statistics
Read error : 0
Skipped (treated as error) : 0
Edge jitter error (maybe fixed) : 0
Atom jitter error (maybe fixed) : 0
Drift error (maybe fixed) : 0
Dropped bytes error (maybe fixed) : 0
Duplicated bytes error (maybe fixed) : 0
Inconsistency in error sectors : 0
Track 04
Filename : /Users/Incubus/Desktop/Beastiary/04 Demons Of Guillotine - Бестиарий.m4a
CRC32 hash (test run) : 2C9E2E39
CRC32 hash : 2C9E2E39
CRC32 hash (skip zero) : A7A2A320
AccurateRip signature : DB95FBD8
->Accurately ripped! (confidence 2)
Statistics
Read error : 0
Skipped (treated as error) : 0
Edge jitter error (maybe fixed) : 0
Atom jitter error (maybe fixed) : 0
Drift error (maybe fixed) : 0
Dropped bytes error (maybe fixed) : 0
Duplicated bytes error (maybe fixed) : 0
Inconsistency in error sectors : 0
Track 05
Filename : /Users/Incubus/Desktop/Beastiary/05 Demons Of Guillotine - Эко, Гернуннос!.m4a
CRC32 hash (test run) : 904C4A9D
CRC32 hash : 904C4A9D
CRC32 hash (skip zero) : A1C05D7A
AccurateRip signature : CEA5C12F
->Accurately ripped! (confidence 2)
Statistics
Read error : 0
Skipped (treated as error) : 0
Edge jitter error (maybe fixed) : 0
Atom jitter error (maybe fixed) : 0
Drift error (maybe fixed) : 0
Dropped bytes error (maybe fixed) : 0
Duplicated bytes error (maybe fixed) : 0
Inconsistency in error sectors : 0
Track 06
Filename : /Users/Incubus/Desktop/Beastiary/06 Demons Of Guillotine - Чёртовы Куклы - The Devil's Dollz.m4a
CRC32 hash (test run) : 6B567F5B
CRC32 hash : 6B567F5B
CRC32 hash (skip zero) : D05B89C1
AccurateRip signature : FCF468DA
->Accurately ripped! (confidence 2)
Statistics
Read error : 0
Skipped (treated as error) : 0
Edge jitter error (maybe fixed) : 0
Atom jitter error (maybe fixed) : 0
Drift error (maybe fixed) : 0
Dropped bytes error (maybe fixed) : 0
Duplicated bytes error (maybe fixed) : 0
Inconsistency in error sectors : 0
Track 07
Filename : /Users/Incubus/Desktop/Beastiary/07 Demons Of Guillotine - Опалённый Рай.m4a
CRC32 hash (test run) : 2AF53F86
CRC32 hash : 2AF53F86
CRC32 hash (skip zero) : 6AAF49D8
AccurateRip signature : A95459CF
->Accurately ripped! (confidence 2)
Statistics
Read error : 0
Skipped (treated as error) : 0
Edge jitter error (maybe fixed) : 0
Atom jitter error (maybe fixed) : 0
Drift error (maybe fixed) : 0
Dropped bytes error (maybe fixed) : 0
Duplicated bytes error (maybe fixed) : 0
Inconsistency in error sectors : 0
Track 08
Filename : /Users/Incubus/Desktop/Beastiary/08 Demons Of Guillotine - Леди Седлает Чёрного Коня.m4a
CRC32 hash (test run) : 118AC7DF
CRC32 hash : 118AC7DF
CRC32 hash (skip zero) : F6095B4B
AccurateRip signature : 5DD958BE
->Accurately ripped! (confidence 2)
Statistics
Read error : 0
Skipped (treated as error) : 0
Edge jitter error (maybe fixed) : 0
Atom jitter error (maybe fixed) : 0
Drift error (maybe fixed) : 0
Dropped bytes error (maybe fixed) : 0
Duplicated bytes error (maybe fixed) : 0
Inconsistency in error sectors : 0
Track 09
Filename : /Users/Incubus/Desktop/Beastiary/09 Demons Of Guillotine - Воздух-Земля.m4a
CRC32 hash (test run) : 70523D88
CRC32 hash : 70523D88
CRC32 hash (skip zero) : 91A8DAB8
AccurateRip signature : 46FCA37A
->Accurately ripped! (confidence 2)
Statistics
Read error : 0
Skipped (treated as error) : 0
Edge jitter error (maybe fixed) : 0
Atom jitter error (maybe fixed) : 0
Drift error (maybe fixed) : 0
Dropped bytes error (maybe fixed) : 0
Duplicated bytes error (maybe fixed) : 0
Inconsistency in error sectors : 0
Track 10
Filename : /Users/Incubus/Desktop/Beastiary/10 Demons Of Guillotine - Ночь Беспощадная.m4a
CRC32 hash (test run) : 0CC1025F
CRC32 hash : 0CC1025F
CRC32 hash (skip zero) : 33BD1F26
AccurateRip signature : D28D26B0
->Accurately ripped! (confidence 2)
Statistics
Read error : 0
Skipped (treated as error) : 0
Edge jitter error (maybe fixed) : 0
Atom jitter error (maybe fixed) : 0
Drift error (maybe fixed) : 0
Dropped bytes error (maybe fixed) : 0
Duplicated bytes error (maybe fixed) : 0
Inconsistency in error sectors : 0
Track 11
Filename : /Users/Incubus/Desktop/Beastiary/11 Demons Of Guillotine - Адонай.m4a
CRC32 hash (test run) : B73439AF
CRC32 hash : B73439AF
CRC32 hash (skip zero) : 05C7E6CA
AccurateRip signature : EAD62716
->Accurately ripped! (confidence 2)
Statistics
Read error : 0
Skipped (treated as error) : 0
Edge jitter error (maybe fixed) : 1
Atom jitter error (maybe fixed) : 0
Drift error (maybe fixed) : 0
Dropped bytes error (maybe fixed) : 1
Duplicated bytes error (maybe fixed) : 0
Inconsistency in error sectors : 0
Track 12
Filename : /Users/Incubus/Desktop/Beastiary/12 Demons Of Guillotine - Зодиак.m4a
CRC32 hash (test run) : 0817C36B
CRC32 hash : 0817C36B
CRC32 hash (skip zero) : 6A0ED9FD
AccurateRip signature : 54265764
->Accurately ripped! (confidence 2)
Statistics
Read error : 0
Skipped (treated as error) : 0
Edge jitter error (maybe fixed) : 0
Atom jitter error (maybe fixed) : 0
Drift error (maybe fixed) : 0
Dropped bytes error (maybe fixed) : 0
Duplicated bytes error (maybe fixed) : 0
Inconsistency in error sectors : 0
No errors occurred
End of status report

Apple Mac mini 2,53 Ghz, 4 Gb, 320 Gb, GeForce 9400M


Last edited by Incubus_bass on 2010-10-31 04:01; edited 2 times in total
[Profile]  [PM] 

VioLet

Longevity:
9 years 8 months
Posts:
73

О! Спасибо огромное за релиз!
[Profile]  [PM] 

Incubus_bass ®

Longevity:
10 years
Posts:
86

Не за что. Чтобы сделать данный релиз пришлось купить альбом своей же группы, т.к. у нас самих дисков уже не осталось )))

Apple Mac mini 2,53 Ghz, 4 Gb, 320 Gb, GeForce 9400M
[Profile]  [PM] 

VioLet

Longevity:
9 years 8 months
Posts:
73

Смешно получилось)
А где диски приобрести можно?
[Profile]  [PM] 

Incubus_bass ®

Longevity:
10 years
Posts:
86

Ответил в личку

Apple Mac mini 2,53 Ghz, 4 Gb, 320 Gb, GeForce 9400M
[Profile]  [PM] 

Incubus_bass ®

Longevity:
10 years
Posts:
86

Закачка не идет, видимо ошибка при создании. Сейчас буду разбираться
P.S. Не, вроде качают )

Apple Mac mini 2,53 Ghz, 4 Gb, 320 Gb, GeForce 9400M
[Profile]  [PM] 

Incubus_bass ®

Longevity:
10 years
Posts:
86

Перезалил торрент файл

Apple Mac mini 2,53 Ghz, 4 Gb, 320 Gb, GeForce 9400M
[Profile]  [PM] 

Red_Bandit

Longevity:
10 years
Posts:
172

Перезалил торрент файл
По причине?
Stop complaining. I know what's best for you. © Steve Jobs
[Profile]  [PM] 

Incubus_bass ®

Longevity:
10 years
Posts:
86

Слетели данные с харда, а раздавать тем же файлом с сервера почему-то не хотел.

Apple Mac mini 2,53 Ghz, 4 Gb, 320 Gb, GeForce 9400M
[Profile]  [PM] 

Incubus_bass ®

Longevity:
10 years
Posts:
86

Восстановил данные, раздача снова работает!

Apple Mac mini 2,53 Ghz, 4 Gb, 320 Gb, GeForce 9400M
[Profile]  [PM] 
Display posts from previous:    

The time now is: Today 09:30

All times are GMT + 4 Hours



You cannot post new topics in this forum
You cannot reply to topics in this forum
You cannot edit your posts in this forum
You cannot delete your posts in this forum
You cannot vote in polls in this forum
You cannot attach files in this forum
You cannot download files in this forum