Самые скачиваемые

5 C

5

 

Red_Bandit ®

Longevity:
10 years
Posts:
172

Sting - Ten Summoner's Tales (Remastered)
Жанр: Pop/Rock
Издатель: A&M Records
Официальный сайт: http://www.sting.com/
Год выпуска: 1993 (Remastered - 1998)
Источник: FLAC track
Продолжительность: 00:52:26
Тексты: нет
Трэклист:
01 · If I Ever Lose My Faith In You
02 · Love Is Stronger Than Justice
03 · Fields Of Gold
04 · Heavy Clouds No Rain
05 · She's Too Good For Me
06 · Seven Days
07 · Saint Augustine In Hell
08 · It's Probably Me
09 · Everybody Laughed But You
10 · Shape Of My Heart
11 · Something The Boy Said
12 · Epilogue (Nothing 'Bout Me)
-Тех-данные:

Сонограмма на трек - 09. Everybody Laughed But You

Log Exact Audio Copy

Exact Audio Copy V0.99 prebeta 3 from 28. July 2007
Отчёт EAC об извлечении, выполненном 28. сентября 2010, 20:57
Sting / Ten Summoner's Tales
Дисковод: Optiarc DVD RW AD-7241S Adapter: 3 ID: 0
Режим чтения : Достоверность
Использование точного потока : Да
Отключение кэша аудио : Да
Использование указателей C2 : Нет
Коррекция смещения при чтении : 48
Способность читать области Lead-in и Lead-out : Нет
Заполнение пропущенных сэмплов тишиной : Да
Удаление блоков с тишиной в начале и конце : Нет
При вычислениях CRC использовались нулевые сэмплы : Да
Интерфейс : Встроенный Win32-интерфейс для Win NT/2000
Обработка зазоров : Добавлено к предыдущему треку
Выходной формат : Пользовательский кодировщик
Выбранный битрейт : 768 kBit/s
Качество : Высокий
Добавление ID3-тэга : Нет
Утилита сжатия : C:\Program Files (x86)\Exact Audio Copy\FLAC\FLAC.EXE
Дополнительные параметры : -6 -V -T "ARTIST=%a" -T "TITLE=%t" -T "ALBUM=%g" -T "DATE=%y" -T "TRACKNUMBER=%n" -T "GENRE=%m" -T "COMMENT=%e" %s -o %d
TOC извлечённого CD
Трек | Старт | Длительность | Начальный сектор | Конечный сектор
---------------------------------------------------------------------
1 | 0:00.00 | 4:30.40 | 0 | 20289
2 | 4:30.40 | 5:11.03 | 20290 | 43617
3 | 9:41.43 | 3:42.09 | 43618 | 60276
4 | 13:23.52 | 3:47.68 | 60277 | 77369
5 | 17:11.45 | 2:30.15 | 77370 | 88634
6 | 19:41.60 | 4:38.15 | 88635 | 109499
7 | 24:20.00 | 5:18.47 | 109500 | 133396
8 | 29:38.47 | 5:08.20 | 133397 | 156516
9 | 34:46.67 | 3:54.51 | 156517 | 174117
10 | 38:41.43 | 4:39.17 | 174118 | 195059
11 | 43:20.60 | 5:28.70 | 195060 | 219729
12 | 48:49.55 | 3:41.65 | 219730 | 236369
13 | 55:03.45 | 8:48.70 | 247770 | 287439
Трек 1
Имя файла K:\My Torrents\1993.03 · Ten Summoner's Tales\01 · If I Ever Lose My Faith In You.wav
Длина предзазора 0:00:02.00
Пиковый уровень 97.0 %
Качество трека 100.0 %
CRC теста 6262AC7C
CRC копии 6262AC7C
Точное извлечение (достоверность 12) [B07FE59A]
Копирование... OK
Трек 2
Имя файла K:\My Torrents\1993.03 · Ten Summoner's Tales\02 · Love Is Stronger Than Justice.wav
Пиковый уровень 92.6 %
Качество трека 100.0 %
CRC теста B0E67CEA
CRC копии B0E67CEA
Точное извлечение (достоверность 12) [922F3523]
Копирование... OK
Трек 3
Имя файла K:\My Torrents\1993.03 · Ten Summoner's Tales\03 · Fields Of Gold.wav
Пиковый уровень 92.6 %
Качество трека 100.0 %
CRC теста 961CF555
CRC копии 961CF555
Точное извлечение (достоверность 10) [9F470099]
Копирование... OK
Трек 4
Имя файла K:\My Torrents\1993.03 · Ten Summoner's Tales\04 · Heavy Clouds No Rain.wav
Пиковый уровень 97.0 %
Качество трека 100.0 %
CRC теста 680432A9
CRC копии 680432A9
Точное извлечение (достоверность 12) [1DE4DA4F]
Копирование... OK
Трек 5
Имя файла K:\My Torrents\1993.03 · Ten Summoner's Tales\05 · She's Too Good For Me.wav
Пиковый уровень 97.0 %
Качество трека 100.0 %
CRC теста 6270DC21
CRC копии 6270DC21
Точное извлечение (достоверность 12) [5EB22A9B]
Копирование... OK
Трек 6
Имя файла K:\My Torrents\1993.03 · Ten Summoner's Tales\06 · Seven Days.wav
Пиковый уровень 97.0 %
Качество трека 100.0 %
CRC теста 6139044E
CRC копии 6139044E
Точное извлечение (достоверность 12) [775A2296]
Копирование... OK
Трек 7
Имя файла K:\My Torrents\1993.03 · Ten Summoner's Tales\07 · Saint Augustine In Hell.wav
Пиковый уровень 97.0 %
Качество трека 100.0 %
CRC теста B99F0225
CRC копии B99F0225
Точное извлечение (достоверность 12) [C0A8A186]
Копирование... OK
Трек 8
Имя файла K:\My Torrents\1993.03 · Ten Summoner's Tales\08 · It's Probably Me.wav
Пиковый уровень 97.0 %
Качество трека 100.0 %
CRC теста 73DBFD56
CRC копии 73DBFD56
Точное извлечение (достоверность 12) [82DD473A]
Копирование... OK
Трек 9
Имя файла K:\My Torrents\1993.03 · Ten Summoner's Tales\09 · Everybody Laughed But You.wav
Пиковый уровень 97.0 %
Качество трека 100.0 %
CRC теста 286F45E7
CRC копии 286F45E7
Точное извлечение (достоверность 12) [5EAD55C4]
Копирование... OK
Трек 10
Имя файла K:\My Torrents\1993.03 · Ten Summoner's Tales\10 · Shape Of My Heart.wav
Пиковый уровень 97.0 %
Качество трека 100.0 %
CRC теста 58D0C041
CRC копии 58D0C041
Точное извлечение (достоверность 12) [0F379965]
Копирование... OK
Трек 11
Имя файла K:\My Torrents\1993.03 · Ten Summoner's Tales\11 · Something The Boy Said.wav
Пиковый уровень 97.0 %
Качество трека 100.0 %
CRC теста F5A2F43F
CRC копии F5A2F43F
Точное извлечение (достоверность 12) [903E52D3]
Копирование... OK
Трек 12
Имя файла K:\My Torrents\1993.03 · Ten Summoner's Tales\12 · Epilogue (Nothing 'Bout Me).wav
Пиковый уровень 97.0 %
Качество трека 100.0 %
CRC теста A156B1CD
CRC копии A156B1CD
Точное извлечение (достоверность 12) [514A9FCB]
Копирование... OK
Все треки извлечены точно
Ошибок не произошло
Конец отчёта

Доп-информация:

Сканы в раздаче


Stop complaining. I know what's best for you. © Steve Jobs
[Profile]  [PM] 
Display posts from previous:    

The time now is: Today 19:01

All times are GMT + 4 Hours



You cannot post new topics in this forum
You cannot reply to topics in this forum
You cannot edit your posts in this forum
You cannot delete your posts in this forum
You cannot vote in polls in this forum
You cannot attach files in this forum
You cannot download files in this forum